<?xml version="1.0" standalone="no"?>
<!DOCTYPE svg PUBLIC "-//W3C//DTD SVG 1.1//EN" "http://www.w3.org/Graphics/SVG/1.1/DTD/svg11.dtd" >
<svg xmlns="http://www.w3.org/2000/svg" xmlns:xlink="http://www.w3.org/1999/xlink" version="1.1">
<metadata>
Created by FontForge 20201107 at Tue Nov 12 13:53:40 2024
 By 
(c) 2015-2023 Pangram Pangram All rights reserved.
</metadata>
<defs>
<font id="PPPangaia-MediumItalic" horiz-adv-x="0" >
  <font-face 
    font-family="PP Pangaia Medium Italic"
    font-weight="500"
    font-style="italic"
    font-stretch="normal"
    units-per-em="2048"
    panose-1="0 0 0 0 0 0 0 0 0 0"
    ascent="1638"
    descent="-410"
    x-height="1038"
    cap-height="1434"
    bbox="-508 -670 2871.56 1964"
    underline-thickness="49"
    underline-position="-187"
    slope="-12"
    unicode-range="U+0020-277E"
  />
<missing-glyph horiz-adv-x="972" 
d="M799 1536v-1946h-619v1946h619zM326 -274h321v63h-198l137 92h61v64h-321v-64h135l-135 -92v-63zM326 -10h321v219h-321v-219zM326 326h321v219h-194v-109h67v45h64v-92h-195v156h-63v-219zM326 588h321v194h-63v-127h-258v-67zM326 700h194v136h127v63h-321v-63h127v-72
h-127v-64zM326 952h321v66h-127v137h-194v-203zM326 1206h321v64h-127v71h127v64h-319v-64h125v-71h-127v-64zM389 53v92h195v-92h-195zM389 1018v72h64v-72h-64z" />
    <glyph glyph-name="F_l.liga" unicode="Fl" horiz-adv-x="1474" 
d="M-61 0v27q66 0 107.5 39.5t62.5 138.5l219 1024q37 178 -117 178v27h936q108 7 187.5 27t166.5 75l17 -14l-39 -185l-203 -964q-7 -31 -19 -87q-12 -52 -17 -75t-7.5 -50.5t3 -38t19.5 -11.5q38 -5 89.5 78.5t91.5 240.5l18 -6q-56 -241 -149.5 -346t-190.5 -86
q-41 7 -63.5 33.5t-27 74.5t2 103.5t23.5 136.5l182 860q-20 101 -85.5 150t-182.5 49h-367l-145 -680h202q104 0 161.5 53t84.5 184h27l-109 -514h-26q29 131 -6.5 186.5t-139.5 55.5h-201l-102 -479q-37 -178 145 -178v-27h-548z" />
    <glyph glyph-name="T_h.liga" unicode="Th" horiz-adv-x="2205" 
d="M297 0v27q67 0 109 39.5t63 138.5l254 1194h-113q-138 0 -258 -109.5t-184 -275.5l-27 4l152 416h1034q94 7 169.5 28t156.5 72l18 -14l-41 -183l-178 -829q60 154 135 279t167 206.5t177 81.5q115 0 180 -108t56 -281q-5 -109 -45.5 -230.5t-105 -226.5t-158 -174
t-193.5 -69q-78 0 -122 41.5t-44 95.5q0 49 31 88t84 39t84 -38t24 -95q-2 -23 -3 -43t7.5 -32t26.5 -9q31 4 68 46t71 109t57.5 165t24.5 202q1 176 -46.5 277.5t-108.5 101.5q-64 0 -148 -99.5t-164.5 -277.5t-128.5 -385l-37 -172h-217l260 1206q-29 90 -92 141.5
t-157 51.5h-181l-252 -1194q-40 -178 115 -178v-27h-520z" />
    <glyph glyph-name="f_b.liga" unicode="fb" horiz-adv-x="1609" 
d="M-283 -383q124 7 207.5 126t126.5 325l185 888h-142l4 29q71 8 115 42t88 118q62 109 133.5 190.5t165.5 134.5t193 54q82 3 155 -45q66 21 135 63l19 -12l-211 -946q81 198 203 335.5t245 137.5q73 0 126.5 -38t79 -102t32 -149.5t-15.5 -179.5q-55 -256 -238 -428
t-395 -172q-123 0 -236 71l-129 -79l-18 14l289 1311q29 184 -64 184q-80 0 -164 -120t-121 -286l-8 -45h238l-49 -82h-207l-170 -819q-27 -134 -84.5 -238.5t-135 -169.5t-167 -100t-187.5 -39zM840 324q-29 -130 -4 -215.5t102 -85.5q42 0 91 29t99.5 82.5t98.5 141
t82 193.5q36 113 46 204.5t-3.5 147.5t-43 85.5t-71.5 29.5q-66 0 -150 -94t-152 -237t-95 -281z" />
    <glyph glyph-name="f_eth.liga" unicode="f&#xf0;" horiz-adv-x="1624" 
d="M-283 -383q125 7 209 126.5t125 324.5l180 888h-143l6 29q74 8 119 42t82 118q72 161 202.5 269.5t282.5 109.5q83 3 144 -29q71 41 163 41q188 0 326 -154l211 125l16 -28l-206 -121q102 -128 140 -313t-1 -418q-29 -157 -88.5 -280.5t-139.5 -201.5t-175 -118.5
t-199 -40.5q-129 0 -223.5 66.5t-133.5 192t-4 283.5q32 145 122 257.5t210 170.5t248 56q58 0 107.5 -29t82.5 -80q17 233 -49 395l-209 -122l-14 26l211 125q-36 79 -89 124t-110 48q-46 2 -65.5 -20.5t-10.5 -73.5q10 -51 -14 -96.5t-76 -53.5q-61 -11 -102.5 27.5
t-32.5 114.5q5 40 -14 65t-60 25q-77 0 -152.5 -113.5t-111.5 -290.5l-10 -45h262l-51 -82h-227l-166 -819q-27 -134 -84.5 -238.5t-135 -169.5t-167 -100t-187.5 -39zM838 516q-45 -217 -2 -356t157 -133q106 5 194.5 138t129.5 359q38 205 -6 331t-144 126
q-111 -1 -199.5 -131t-129.5 -334z" />
    <glyph glyph-name="f_f.liga" unicode="ff" horiz-adv-x="1130" 
d="M223 -383q124 7 207.5 126t126.5 325l186 888h-284l-170 -819q-27 -134 -84.5 -238.5t-135 -169.5t-167 -100t-187.5 -39l2 27q124 7 207.5 126t126.5 325l185 888h-142l4 29q71 8 115 42t88 118q91 161 212.5 252t266.5 92q63 1 120.5 -22t96.5 -62q138 119 293 119
q80 2 137.5 -27.5t75.5 -85.5q20 -47 -2 -95.5t-76 -58.5q-59 -11 -99.5 26t-33.5 110q1 8 2.5 22t2 21t0.5 17t-2.5 15t-6.5 10t-12 7t-19 2q-78 0 -153 -113t-113 -291l-8 -45h260l-51 -82h-225l-172 -819q-27 -134 -84 -238.5t-134.5 -169.5t-167 -100t-188.5 -39z
M477 1038h289q11 11 18 29q35 114 105 217q0 73 -35 122.5t-78 49.5q-85 0 -170 -105.5t-121 -267.5z" />
    <glyph glyph-name="f_f_i.liga" unicode="ffi" horiz-adv-x="1529" 
d="M-283 -383q125 7 209 126.5t125 324.5l185 899h-142l4 28q72 8 117 40.5t86 109.5q91 161 212.5 252t266.5 92q62 1 118 -22t95 -60q142 130 316 133q71 0 133.5 -29.5t83.5 -83.5q25 -50 -0.5 -101.5t-81.5 -61.5q-59 -11 -102 29t-37 116q5 64 -2 78q-8 16 -29 16
q-76 0 -161.5 -119t-123.5 -301l-10 -45h471l16 -20l-137 -645q-38 -176 -39 -190q-9 -70 21 -72q36 -5 87.5 78t92.5 239l18 -6q-58 -240 -151.5 -344.5t-190.5 -85.5q-41 7 -63.5 33.5t-27 74.5t2 103.5t23.5 136.5l135 627h-268l-176 -830q-56 -269 -204.5 -407
t-359.5 -140v27q117 6 200 126t126 325l190 899h-286l-170 -830q-27 -134 -84.5 -238.5t-135 -169.5t-167 -100t-187.5 -39zM477 1038h289l4 2q45 137 119 244q0 75 -34.5 123.5t-78.5 48.5q-85 0 -170 -105.5t-121 -267.5z" />
    <glyph glyph-name="f_f_l.liga" unicode="ffl" horiz-adv-x="1552" 
d="M-283 -383q124 7 207.5 126t126.5 325l185 888h-142l4 29q71 8 115 42t88 118q91 161 212.5 252t266.5 92q66 1 125 -24t96 -66q134 122 291 125q82 3 158 -45q65 21 133 63l19 -12l-248 -1159q-39 -173 -42 -190q-10 -69 21 -72q36 -3 87.5 79.5t92.5 239.5l19 -6
q-30 -124 -71.5 -214.5t-87 -138.5t-91.5 -67.5t-92 -11.5q-41 8 -64 35t-27.5 75t2 104t23.5 136l205 930h-2q44 219 -51 219q-84 0 -166 -119t-119 -287l-10 -45h240l-52 -82h-204l-170 -819q-28 -134 -85.5 -238.5t-134.5 -169.5t-166.5 -100t-187.5 -39v27
q124 7 208.5 126.5t127.5 324.5l184 888h-282l-170 -819q-27 -134 -84.5 -238.5t-135 -169.5t-167 -100t-187.5 -39zM477 1038h285q12 12 22 29q48 114 103 199q7 80 -29 135t-82 55q-85 0 -170 -105.5t-121 -267.5z" />
    <glyph glyph-name="f_h.liga" unicode="fh" horiz-adv-x="1634" 
d="M-283 -383q124 7 207.5 126t126.5 325l185 888h-142l4 29q71 8 115 42t88 118q62 109 133.5 190.5t165.5 134.5t193 54q82 3 155 -45q66 21 135 63l19 -12l-41 -184l-184 -844q60 155 135.5 281.5t168.5 209t179 82.5q115 0 179.5 -108t55.5 -281q-5 -109 -45 -230.5
t-104.5 -226.5t-158 -174t-193.5 -69q-78 0 -122 41.5t-44 95.5q0 49 30.5 88t83.5 39t85.5 -37.5t25.5 -93.5q-8 -34 -2.5 -62t31.5 -24q31 4 68 46t71 109t57.5 165t24.5 202q1 176 -47 277.5t-109 101.5q-64 0 -147.5 -99.5t-164.5 -277.5t-130 -385l-37 -172h-217
l280 1296q33 193 -61 193q-80 0 -164 -120t-121 -286l-8 -45h238l-49 -82h-207l-170 -819q-27 -134 -84.5 -238.5t-135 -169.5t-167 -100t-187.5 -39z" />
    <glyph glyph-name="f_i.liga" unicode="fi" horiz-adv-x="1021" 
d="M-283 -383q124 6 207.5 125.5t126.5 325.5l187 899h-144l6 28q74 8 119 40.5t82 115.5q75 167 208 277.5t292 111.5q73 0 135.5 -29.5t83.5 -83.5q25 -50 -0.5 -101.5t-83.5 -61.5q-59 -11 -101.5 29t-35.5 116q5 64 -3 78q-8 16 -30 16q-75 0 -160 -119t-123 -301
l-10 -45h469l19 -20l-138 -645q-6 -29 -18 -81q-29 -130 -24 -158q3 -22 22 -23q37 -5 88.5 78t91.5 239l21 -6q-58 -240 -151.5 -344.5t-190.5 -85.5q-42 7 -65 33.5t-27.5 74.5t2 103.5t24.5 136.5l135 627h-270l-172 -830q-27 -134 -84.5 -238.5t-135 -169.5t-167 -100
t-187.5 -39z" />
    <glyph glyph-name="f_j.liga" unicode="fj" horiz-adv-x="991" 
d="M-283 -383q117 6 199 126t125 325l190 899h-143l6 28q75 8 119.5 40.5t79.5 115.5q75 167 209 277.5t293 111.5q73 0 134.5 -29.5t82.5 -83.5q25 -50 -0.5 -101.5t-81.5 -61.5q-59 -11 -101.5 29t-35.5 116q2 63 -3 77q-8 17 -30 17q-75 0 -160.5 -119t-124.5 -301
l-8 -45h467l20 -22l-184 -879q-28 -133 -85.5 -237.5t-134 -170t-166 -100.5t-187.5 -39v27q124 7 207 126t126 325l193 899h-268l-176 -830q-56 -269 -204 -407t-360 -140z" />
    <glyph glyph-name="f_k.liga" unicode="fk" horiz-adv-x="1611" 
d="M-283 -383q124 7 207.5 126t126.5 325l185 888h-142l4 29q71 8 115 42t88 118q62 109 133.5 190.5t165.5 134.5t193 54q82 3 155 -45q66 21 135 63l19 -12l-41 -184l-205 -938q220 647 516 647q69 0 110.5 -45t35.5 -115q-9 -108 -123 -219.5t-289 -169.5
q102 -231 162.5 -318t117.5 -92q104 -6 197 236l21 -8q-63 -168 -148.5 -255t-179.5 -87q-109 0 -190.5 102t-167.5 336q99 42 174 94l6 8q0 -2 2 -4q205 145 213 299q4 56 -18.5 87.5t-57.5 31.5q-43 0 -99 -57.5t-119 -167t-130 -295t-121 -416.5h-217l280 1296
q33 193 -61 193q-80 0 -164 -120t-121 -286l-8 -45h238l-49 -82h-207l-170 -819q-27 -134 -84.5 -238.5t-135 -169.5t-167 -100t-187.5 -39z" />
    <glyph glyph-name="f_l.liga" unicode="fl" horiz-adv-x="1050" 
d="M-283 -383q124 7 207.5 126t126.5 325l185 888h-142l4 29q71 8 115 42t88 118q62 109 133.5 190.5t165.5 134.5t193 54q82 3 155 -45q66 21 135 63l19 -12l-41 -184l-209 -973q-7 -31 -19 -85q-29 -128 -24 -155q4 -21 22 -22q37 -5 89.5 78t93.5 239l18 -6
q-57 -239 -151 -344t-191 -88q-41 8 -63.5 35t-27 75t2 103.5t23.5 136.5l206 956q33 193 -61 193q-80 0 -164 -120t-121 -286l-8 -45h230l-52 -82h-196l-170 -819q-27 -134 -84.5 -238.5t-135 -169.5t-167 -100t-187.5 -39z" />
    <glyph glyph-name="f_t.liga" unicode="ft" horiz-adv-x="1216" 
d="M-283 -383q124 7 207.5 126t126.5 325l185 888h-142l4 29q74 8 119.5 42t83.5 118q71 161 194.5 269.5t268.5 109.5q70 2 126.5 -28t74.5 -85q20 -47 -2 -95.5t-76 -58.5q-59 -11 -100 26t-35 110q1 11 3.5 30t2.5 27.5t-1.5 18.5t-8.5 14t-19 4q-70 0 -138 -112.5
t-106 -291.5l-8 -45h156q147 0 231.5 55t122.5 179h29l-47 -234h309l-53 -82h-275l-131 -620q-49 -234 68 -240q65 -3 140.5 82t133.5 223l21 -8q-62 -179 -176.5 -296t-229.5 -117q-123 0 -167.5 88.5t-12.5 242.5l133 645h-270l-170 -819q-27 -134 -84.5 -238.5
t-135 -169.5t-167 -100t-187.5 -39z" />
    <glyph glyph-name="t_t.liga" unicode="tt" horiz-adv-x="1312" 
d="M260 -20q-117 0 -160.5 89t-11.5 242l135 645h-133l4 29q130 9 235 89.5t158 217.5h29l-53 -254h254q139 0 230.5 59t144.5 195h28l-55 -254h309l-51 -82h-276l-129 -620q-25 -110 -8.5 -175t73.5 -65q69 -1 143 81.5t134 223.5l18 -8q-66 -189 -179 -301t-237 -112
q-112 0 -156.5 90t-13.5 241l2 13q-74 -158 -197 -251t-237 -93zM313 336q-52 -242 82 -242q82 0 178 96t148 259l104 507h-383z" />
    <glyph glyph-name=".notdef" horiz-adv-x="972" 
d="M799 1536v-1946h-619v1946h619zM326 -274h321v63h-198l137 92h61v64h-321v-64h135l-135 -92v-63zM326 -10h321v219h-321v-219zM326 326h321v219h-194v-109h67v45h64v-92h-195v156h-63v-219zM326 588h321v194h-63v-127h-258v-67zM326 700h194v136h127v63h-321v-63h127v-72
h-127v-64zM326 952h321v66h-127v137h-194v-203zM326 1206h321v64h-127v71h127v64h-319v-64h125v-71h-127v-64zM389 53v92h195v-92h-195zM389 1018v72h64v-72h-64z" />
    <glyph glyph-name=".null" 
 />
    <glyph glyph-name="nonmarkingreturn" horiz-adv-x="682" 
 />
    <glyph glyph-name="space" unicode=" " horiz-adv-x="391" 
 />
    <glyph glyph-name="space" unicode="&#xa0;" horiz-adv-x="391" 
 />
    <glyph glyph-name="exclam" unicode="!" horiz-adv-x="524" 
d="M217 377q36 155 43.5 326.5t10 326.5t24.5 262q19 86 63 125t101 39t84 -43t8 -129q-24 -105 -83.5 -256t-123.5 -323.5t-100 -327.5h-27zM45 127q5 59 47 98t103 39q62 0 97 -38.5t30 -98.5q-6 -62 -48.5 -102.5t-103.5 -40.5t-96 40.5t-29 102.5z" />
    <glyph glyph-name="quotedbl" unicode="&#x22;" horiz-adv-x="663" 
d="M541 926q20 112 11 166t-21 118t-3 115q10 63 49 99t91 36t76.5 -37.5t11.5 -99.5q-10 -43 -36 -88.5t-52 -81t-54 -96.5t-43 -131h-30zM229 1325q10 63 49 99t91 36t76.5 -37.5t11.5 -99.5q-10 -43 -36 -88.5t-52 -81t-54 -96.5t-43 -131h-30q20 112 11 166t-21 118
t-3 115z" />
    <glyph glyph-name="numbersign" unicode="#" horiz-adv-x="1234" 
d="M-23 424l7 33h325l262 534h-311l6 33h322l205 418l32 -8l-200 -410h338l204 418l33 -8l-201 -410h304l-7 -33h-311l-262 -534h297l-6 -33h-307l-209 -430l-37 8l207 422h-336l-209 -430l-37 8l207 422h-316zM348 457h336l262 534h-336z" />
    <glyph glyph-name="dollar" unicode="$" horiz-adv-x="1101" 
d="M479 -14l-39 -176l-34 -3l38 181q-117 6 -249 71q-25 14 -52 15t-52 -16.5t-34 -53.5h-28l104 543l29 -2q-5 -75 0 -143.5t24 -136t52 -118t87.5 -85t125.5 -42.5l129 592q-6 3 -21 13q-192 124 -261.5 234t-35.5 255q36 152 174 244.5t303 89.5h19l37 168l34 2l-36 -172
q49 -5 95.5 -18.5t65.5 -22t62 -29.5q31 -16 69.5 1.5t49.5 60.5h24l-110 -520l-29 4q17 197 -46.5 329.5t-189.5 157.5l-118 -549l28 -18q186 -127 257.5 -241.5t39.5 -250.5q-20 -81 -62.5 -146t-94.5 -105t-115.5 -66.5t-122.5 -37t-117 -9.5zM459 1206q-20 -88 20 -161
t158 -162l115 532h-13q-104 3 -181.5 -56t-98.5 -153zM485 18h7q111 0 195 61t106 159q23 98 -23 184.5t-162 169.5z" />
    <glyph glyph-name="percent" unicode="%" horiz-adv-x="1564" 
d="M147 -12l-32 22l1304 1430l29 -23zM203 1118q30 142 143.5 230t245.5 88q131 0 206.5 -93.5t45.5 -234.5q-30 -143 -142 -232.5t-241 -89.5q-137 0 -212.5 95.5t-45.5 236.5zM352 1079q-19 -124 16.5 -195t114.5 -65q72 4 132.5 102.5t80.5 227.5q18 119 -14.5 188
t-110.5 66q-80 -3 -138 -99t-81 -225zM725 334q30 142 143 229.5t246 87.5q132 0 207.5 -93t44.5 -234q-30 -143 -142 -232.5t-243 -89.5q-136 0 -210.5 96t-45.5 236zM877 295q-19 -124 15.5 -195t113.5 -65q72 4 132.5 102.5t80.5 227.5q18 119 -14.5 187.5t-110.5 65.5
q-55 -2 -101.5 -51.5t-74.5 -120t-41 -151.5z" />
    <glyph glyph-name="ampersand" unicode="&#x26;" horiz-adv-x="1624" 
d="M737 -68q-166 0 -303.5 59t-218.5 169.5t-78 251.5q3 192 146.5 322.5t347.5 142.5q-114 12 -177 80.5t-61 164.5q2 109 75.5 198.5t184.5 137t230 47.5q140 0 241.5 -64.5t100.5 -170.5q0 -64 -36 -99.5t-89 -35.5q-51 0 -81 31t-28 81q0 38 26.5 78t29.5 61
q3 35 -34.5 63t-105.5 28q-117 0 -208.5 -97.5t-98.5 -244.5q-5 -85 43.5 -152.5t128.5 -77.5l-2 -24q-164 -8 -276 -119t-115 -275q-5 -170 124.5 -286.5t338.5 -116.5q111 0 206.5 35t158.5 93t99.5 131t39.5 151q4 134 -78 222.5t-203 88.5q-97 0 -158 -48.5t-63 -99.5
q0 -16 6 -24.5t22 -5.5q11 1 46.5 15.5t66.5 14.5q51 0 84.5 -33.5t32.5 -84.5q0 -54 -35 -86.5t-88 -32.5q-80 0 -127 63t-47 146q2 123 99.5 216t250.5 93q59 0 139 -18.5t131 -18.5q95 0 155 40t62 93q0 34 -34 29q-14 -2 -42 -16.5t-61 -14.5q-53 0 -86.5 33t-32.5 84
q0 54 35 88.5t86 34.5q76 0 124 -62t46 -149q-2 -124 -94.5 -221t-226.5 -97q-63 0 -115 25q71 -40 106 -117t33 -172q-1 -67 -21 -133.5t-57 -127.5t-93 -113t-125.5 -90.5t-158.5 -60.5t-188 -22z" />
    <glyph glyph-name="quotesingle" unicode="'" horiz-adv-x="362" 
d="M242 926q20 112 11 166t-21 118t-3 115q10 63 49 99t91 36t76.5 -37.5t11.5 -99.5q-10 -43 -36 -88.5t-52 -81t-54 -96.5t-43 -131h-30z" />
    <glyph glyph-name="parenleft" unicode="(" horiz-adv-x="692" 
d="M408 -446q-197 219 -259.5 468t1.5 535q121 576 684 1024l14 -18q-158 -156 -290.5 -418.5t-201.5 -587.5q-46 -213 -49.5 -408t28.5 -338.5t93 -238.5z" />
    <glyph glyph-name="parenright" unicode=")" horiz-adv-x="692" 
d="M305 1581q197 -219 259.5 -468t-1.5 -535q-121 -576 -684 -1024l-14 18q157 156 289.5 418t201.5 588q46 213 49.5 408t-28 338.5t-92.5 238.5z" />
    <glyph glyph-name="asterisk" unicode="*" horiz-adv-x="829" 
d="M266 836q-23 16 -20 47t33 61q26 26 103.5 80.5t127.5 93.5q-200 7 -248 21q-38 10 -48 37t9 59q17 31 52 44t63 -1q21 -7 44 -22t67 -48t77 -55q-2 38 -5.5 82t-5.5 67t-1.5 49.5t4.5 47.5q6 36 33.5 57t62.5 21q33 0 51.5 -21.5t8.5 -56.5q-7 -27 -21.5 -59
t-41.5 -86.5t-48 -100.5q229 123 238 127q41 15 67 1.5t29 -46.5q3 -34 -18 -59.5t-62 -34.5q-46 -12 -252 -23l31 -31l31 -31l27 -27t25.5 -26.5t19.5 -21.5t15.5 -19t8.5 -14q15 -37 2 -65.5t-43 -44.5q-19 -10 -39 -12.5t-40 6.5t-28 32q-23 68 -43 232
q-128 -218 -145 -240q-28 -29 -63 -34.5t-58 14.5z" />
    <glyph glyph-name="plus" unicode="+" horiz-adv-x="1265" 
d="M520 270l88 418h-415l8 37h415l89 418h40l-88 -418h416l-8 -37h-416l-88 -418h-41z" />
    <glyph glyph-name="comma" unicode="," horiz-adv-x="460" 
d="M-98 -215q73 6 132.5 43.5t76.5 87.5q8 25 0 47t-25.5 37t-34 37t-24.5 47.5t2 67.5q13 57 60 83.5t101 12.5q65 -21 87.5 -85.5t-1.5 -135.5q-18 -65 -59.5 -117t-94 -84t-108 -50t-108.5 -20z" />
    <glyph glyph-name="hyphen" unicode="-" horiz-adv-x="645" 
d="M90 530l6 54h459l-4 -54h-461z" />
    <glyph glyph-name="period" unicode="." horiz-adv-x="434" 
d="M121 -16q-61 0 -96 40.5t-29 102.5q5 59 46.5 98t102.5 39q62 0 97 -38.5t30 -98.5q-6 -62 -48 -102.5t-103 -40.5z" />
    <glyph glyph-name="slash" unicode="/" horiz-adv-x="587" 
d="M39 -154l-35 11l635 1736l29 -10z" />
    <glyph glyph-name="zero" unicode="0" horiz-adv-x="1173" 
d="M487 -20q-147 0 -247.5 89.5t-135.5 254.5t13 399q36 173 109 314.5t164 231t193.5 137.5t204.5 48q137 0 233.5 -86t132.5 -249t-13 -400q-36 -173 -107.5 -315t-160 -233.5t-188.5 -141t-198 -49.5zM338 616q-21 -132 -21.5 -243.5t19.5 -195.5t67.5 -126t118.5 -31
q87 12 171.5 136t144 300t88.5 367q20 138 20.5 249t-20 192.5t-68.5 120.5t-121 26q-88 -14 -171.5 -136.5t-141 -295.5t-86.5 -363z" />
    <glyph glyph-name="one" unicode="1" horiz-adv-x="763" 
d="M-33 0v27q97 0 155.5 39.5t80.5 138.5l184 860q14 66 -6.5 95.5t-83.5 29.5h-121l6 29q72 2 141.5 16.5t137.5 43.5t124 79.5t89 116.5h33l-273 -1270q-37 -178 166 -178v-27h-633z" />
    <glyph glyph-name="two" unicode="2" horiz-adv-x="948" 
d="M-78 37q385 324 567.5 537t223.5 409q26 120 2 197.5t-74 114t-117 36.5q-98 0 -184.5 -72t-134.5 -190l-31 6q62 177 200.5 280.5t297.5 100.5q155 -3 241.5 -121t49.5 -297q-12 -59 -38.5 -116.5t-64.5 -111t-92 -110.5t-115 -112t-140 -118t-161.5 -126t-183.5 -139
q-21 -15 -31 -23h340q92 0 148 9t100 38.5t72.5 70.5t66.5 118l23 -6l-166 -412h-807z" />
    <glyph glyph-name="three" unicode="3" horiz-adv-x="966" 
d="M326 -14q-145 0 -241.5 75t-96.5 193q0 63 35 101t86 38q48 0 76 -33t28 -77q0 -35 -21.5 -78.5t-23.5 -69.5q-2 -51 35.5 -83t101.5 -32q79 1 155.5 54t129 136.5t72.5 176.5q34 167 -39 275t-230 108l6 29q108 9 191 59v2h2q122 75 151 215q26 123 -26.5 194.5
t-147.5 71.5q-74 0 -149 -49t-131 -145l-29 8q61 137 179 223.5t263 83.5q135 -3 214.5 -98t48.5 -236q-22 -103 -115 -182t-211 -92q154 -27 232.5 -147t43.5 -285q-27 -134 -120 -235.5t-215 -151t-254 -49.5z" />
    <glyph glyph-name="four" unicode="4" horiz-adv-x="1067" 
d="M332 0v27q81 0 130 39.5t70 138.5l29 131h-549l8 39l977 1091h35l-209 -993h189l-31 -137h-188l-29 -131q-37 -178 145 -178v-27h-577zM166 473h424l137 647z" />
    <glyph glyph-name="five" unicode="5" horiz-adv-x="1005" 
d="M332 -12q-157 0 -253.5 75t-98.5 191q0 63 35 101t87 38q48 0 76.5 -33t28.5 -79q0 -32 -22.5 -75.5t-24.5 -70.5q-2 -51 38 -84t111 -33q126 0 235.5 122.5t145.5 295.5q40 189 -28.5 306.5t-221.5 117.5q-142 0 -231 -110l-21 12q121 166 261 672h393h51
q119 -1 156.5 10t62.5 63l29 -2l-97 -254h-608q-69 -232 -135 -366q100 51 242 51q104 0 189.5 -35t138.5 -98t74.5 -151t-1.5 -193q-25 -119 -90 -212t-151.5 -148t-181 -83t-189.5 -28z" />
    <glyph glyph-name="six" unicode="6" horiz-adv-x="1085" 
d="M461 -16q-143 0 -242.5 80t-134 219t1.5 327q28 129 93 253t165 232.5t222.5 190t276.5 126.5t316 42l-6 -29q-143 -12 -282 -80.5t-265 -201.5t-205 -312q136 115 293 115q109 0 192 -64.5t117.5 -177t6.5 -243.5q-45 -208 -196 -342.5t-353 -134.5zM317 567
q-31 -160 -20 -282t61.5 -195t126.5 -72q96 1 166.5 99.5t108.5 271.5q47 219 -11 353.5t-171 134.5q-98 0 -197 -95q-44 -119 -64 -215z" />
    <glyph glyph-name="seven" unicode="7" horiz-adv-x="940" 
d="M299 -12q-65 0 -94 47.5t0 152.5q24 90 93 214t163.5 255t178 238.5t173 217t111.5 138.5h-387q-93 0 -154 -11.5t-107 -42.5t-75.5 -73.5t-63.5 -115.5l-26 4l168 422h827l-8 -35q-103 -120 -178 -214t-164.5 -226t-148 -250t-102.5 -261.5t-54 -283.5
q-4 -80 -50.5 -128t-101.5 -48z" />
    <glyph glyph-name="eight" unicode="8" horiz-adv-x="1073" 
d="M412 -20q-202 3 -308.5 116.5t-72.5 261.5q14 67 52 124t93.5 99t118 72t135.5 52q-238 152 -184 397q33 145 174.5 250t320.5 102q164 -3 257 -106t63 -244q-24 -117 -118 -189.5t-226 -105.5l35 -23q133 -85 189 -192.5t30 -228.5q-36 -173 -197 -280.5t-362 -104.5z
M252 401q-36 -152 25.5 -267.5t181.5 -115.5q101 -1 179.5 68.5t102.5 175.5q50 212 -147 340l-123 76q-85 -51 -141.5 -113t-77.5 -164zM471 1200q-25 -112 14.5 -190.5t141.5 -143.5l51 -32q154 89 186 245q33 151 -13.5 244.5t-141.5 95.5q-81 1 -149.5 -62t-88.5 -157z
" />
    <glyph glyph-name="nine" unicode="9" horiz-adv-x="1097" 
d="M106 20q125 14 250 87.5t240 215t184 328.5q-58 -55 -138 -91.5t-169 -37.5q-111 -1 -193.5 61.5t-116.5 169.5t-9 232q41 193 194.5 329.5t347.5 139.5q145 3 245 -75t137 -221.5t1 -326.5q-34 -162 -124 -313t-217.5 -266.5t-294.5 -186t-343 -73.5zM395 1032
q-32 -198 24.5 -319t168.5 -119q108 3 209 100q32 99 49 193q47 245 0.5 390t-166.5 142q-95 -2 -174 -106.5t-111 -280.5z" />
    <glyph glyph-name="colon" unicode=":" horiz-adv-x="434" 
d="M268 670q-61 0 -96 40.5t-29 102.5q5 59 47 98t103 39q62 0 97 -38.5t30 -98.5q-6 -62 -48.5 -102.5t-103.5 -40.5zM-4 127q5 59 46.5 98t102.5 39q62 0 97 -38.5t30 -98.5q-6 -62 -48 -102.5t-103 -40.5t-96 40.5t-29 102.5z" />
    <glyph glyph-name="semicolon" unicode=";" horiz-adv-x="460" 
d="M-98 -215q73 6 132.5 43.5t76.5 87.5q8 25 0 47t-25.5 37t-34 37t-24.5 47.5t2 67.5q13 57 60 83.5t101 12.5q65 -21 87.5 -85.5t-1.5 -135.5q-18 -65 -59.5 -117t-94 -84t-108 -50t-108.5 -20zM143 813q5 59 47 98t103 39q62 0 97 -38.5t30 -98.5q-6 -62 -48.5 -102.5
t-103.5 -40.5t-96 40.5t-29 102.5z" />
    <glyph glyph-name="less" unicode="&#x3c;" horiz-adv-x="1148" 
d="M836 252l-643 424l8 39l827 426l12 -35l-798 -412l622 -409z" />
    <glyph glyph-name="equal" unicode="=" horiz-adv-x="1265" 
d="M231 872l9 37h872l-8 -37h-873zM154 504l8 37h872l-8 -37h-872z" />
    <glyph glyph-name="greater" unicode="&#x3e;" horiz-adv-x="1148" 
d="M123 252l-14 33l798 409l-624 412l28 35l645 -426l-8 -39z" />
    <glyph glyph-name="question" unicode="?" horiz-adv-x="929" 
d="M391 358q12 86 47 164t79 140t88.5 123.5t84 139.5t58.5 162q17 93 3 171t-62.5 129t-117.5 51q-58 0 -95.5 -32t-49.5 -75q-9 -38 7 -87t16 -70q0 -60 -34.5 -98t-88.5 -38q-61 0 -92 37.5t-31 91.5q1 47 30.5 98.5t80 96t127 73.5t161.5 29t160 -29.5t127 -80
t74 -124.5t4 -157q-13 -61 -47 -118t-79.5 -102.5t-98 -90t-105 -89.5t-98 -91.5t-80.5 -104.5t-49 -121zM223 127q5 59 47 98t103 39q62 0 97 -38.5t30 -98.5q-6 -62 -48.5 -102.5t-103.5 -40.5t-96 40.5t-29 102.5z" />
    <glyph glyph-name="at" unicode="@" horiz-adv-x="1890" 
d="M823 -332q-136 0 -254 41t-204.5 116.5t-144.5 181.5t-74.5 236t6.5 281q42 250 184.5 452.5t348.5 316.5t433 114q171 0 306 -62t214.5 -167t110 -245t4.5 -296q-27 -162 -105.5 -300t-188.5 -219.5t-226 -80.5q-69 1 -111.5 29.5t-56 77.5t-11 102.5t18.5 115.5l25 103
q-47 -115 -109.5 -211t-142 -159.5t-154.5 -63.5q-84 0 -138 61t-65 156.5t11 212.5q51 233 210.5 389t346.5 156q104 0 188 -74l141 92l19 -12l-139 -647q-9 -43 -14 -74t-5 -65t8 -55t28 -35t52 -13q114 2 228.5 144.5t152.5 369.5q25 147 -3.5 279.5t-104 233.5
t-204.5 160.5t-294 59.5q-163 0 -318.5 -64t-277.5 -175.5t-208.5 -269t-115.5 -337.5q-30 -172 4 -324.5t118.5 -262t218 -173t296.5 -63.5q228 0 416 115l10 -19q-205 -129 -430 -129zM721 569q-32 -103 -41 -186t3 -134.5t37.5 -78.5t63.5 -27q60 0 134 79t136 208
t89 266q25 128 1.5 202.5t-91.5 74.5q-81 0 -176 -107.5t-156 -296.5z" />
    <glyph glyph-name="A" unicode="A" horiz-adv-x="1339" 
d="M-139 0v27q83 0 165.5 61.5t157.5 192.5l541 958q-26 102 -135 109v26q176 0 311 107l21 -11l190 -1265q14 -98 57 -138t113 -40v-27h-532v27q157 0 131 178l-35 237h-522l-66 -118q-60 -105 -52.5 -170t55.5 -94t132 -29v-31h-532zM344 477h498l-103 709z" />
    <glyph glyph-name="B" unicode="B" horiz-adv-x="1224" 
d="M-61 0v27q67 0 108.5 39.5t63.5 138.5l217 1024q37 178 -117 178v27h655q85 0 150.5 -20.5t103 -54.5t61 -79.5t24.5 -94.5t-7 -100q-25 -113 -129.5 -198t-282.5 -107q93 -7 164 -32.5t114 -63.5t68.5 -87.5t27.5 -105.5t-9 -116q-35 -164 -186 -269.5t-385 -105.5h-641
zM319 102q-7 -29 10.5 -48t63.5 -19h131q147 0 249.5 95t135.5 253q20 101 -1.5 182.5t-90 132t-176.5 50.5h-184zM465 784h194q112 0 193.5 93t105.5 215q14 56 9 111t-22 98.5t-60.5 70.5t-106.5 27h-182z" />
    <glyph glyph-name="C" unicode="C" horiz-adv-x="1415" 
d="M651 -23q-121 0 -222.5 41t-170.5 113.5t-112 172t-46.5 216t25.5 246.5q51 200 179 359t295.5 245t342.5 88q76 1 142.5 -16.5t103 -38.5t72 -38.5t57.5 -16.5q68 3 98 94l31 -2l-82 -545l-27 2q7 238 -98 381.5t-281 148.5q-136 2 -265 -79.5t-221.5 -224
t-125.5 -312.5q-39 -196 10 -353t170 -241.5t287 -77.5q164 9 301 114t221 275l23 -6q-62 -153 -163.5 -274t-244 -196t-299.5 -75z" />
    <glyph glyph-name="D" unicode="D" horiz-adv-x="1406" 
d="M-74 0v27q67 0 109.5 39t64.5 137l228 1028q40 176 -115 176v27h561q105 0 195 -20.5t157.5 -58.5t119.5 -90.5t84 -116.5t48 -137.5t14 -152.5t-20 -162q-72 -324 -312 -510t-616 -186h-518zM322 154q-6 -28 -8.5 -44.5t0.5 -31t10.5 -21.5t25.5 -12t42 -6.5t63 -1.5
q125 0 235 49t193.5 138t144.5 211.5t94 271.5q25 109 27 210t-21.5 188.5t-69.5 152.5t-123 102t-177 37h-158z" />
    <glyph glyph-name="E" unicode="E" horiz-adv-x="1224" 
d="M-61 0v27q67 0 108.5 39.5t63.5 138.5l217 1024q37 178 -117 178v27h1024l-33 -424l-24 -2q8 199 -63 295t-232 96h-285l-139 -651h227q103 0 160.5 50.5t85.5 180.5h26l-110 -524h-27q27 139 -7.5 198.5t-137.5 59.5h-223l-121 -568q-13 -60 4 -85t80 -25h207
q164 0 297.5 103t222.5 292l22 -4l-164 -426h-1062z" />
    <glyph glyph-name="F" unicode="F" horiz-adv-x="1107" 
d="M-61 0v27q66 0 107.5 39.5t62.5 138.5l219 1024q37 178 -117 178v27h1020l-70 -424h-28q8 205 -47.5 297t-206.5 92h-283l-145 -680h225q103 0 161 53.5t85 183.5h26l-110 -514h-27q29 131 -6 186.5t-139 55.5h-222l-102 -479q-37 -178 145 -178v-27h-548z" />
    <glyph glyph-name="G" unicode="G" horiz-adv-x="1513" 
d="M735 -23q-161 0 -292 57.5t-213 161t-113.5 248t6.5 318.5q43 201 168.5 359.5t313 247.5t405.5 89q54 0 109.5 -10.5t85.5 -21t72 -28t46 -18.5q55 -21 88 -16q57 8 82 96h31l-78 -551h-29q-1 141 -52 259t-143 188.5t-206 70.5q-107 0 -212.5 -55.5t-189 -147.5
t-145 -211.5t-86.5 -246.5q-21 -123 -18 -234.5t35 -206.5t83 -164.5t126 -109t163 -39.5q55 0 106.5 18t100 55.5t86 103.5t55.5 153l19 92q20 97 -27.5 137.5t-144.5 40.5v27l526 -2v-27q-49 0 -81.5 -39.5t-53.5 -138.5l-94 -444l-23 -2l-53 127q-214 -136 -453 -136z
" />
    <glyph glyph-name="H" unicode="H" horiz-adv-x="1439" 
d="M-61 0v27q67 0 108.5 39.5t63.5 138.5l217 1024q37 178 -117 178v27h520v-27q-67 0 -108.5 -39.5t-63.5 -138.5l-104 -494h622l103 494q40 178 -115 178v27h520v-27q-67 0 -109 -39.5t-63 -138.5l-217 -1024q-37 -178 115 -178v-27h-518v27q67 0 108.5 39.5t63.5 138.5
l104 495h-623l-104 -495q-37 -178 117 -178v-27h-520z" />
    <glyph glyph-name="I" unicode="I" horiz-adv-x="593" 
d="M-59 0v27q66 0 107.5 39.5t62.5 138.5l217 1024q37 178 -117 178v27h526v-27q-67 0 -109 -39.5t-63 -138.5l-215 -1024q-37 -178 115 -178v-27h-524z" />
    <glyph glyph-name="J" unicode="J" horiz-adv-x="882" 
d="M92 -303q-155 0 -247 67t-103 170q-9 66 24 108.5t84 47.5q54 4 92 -25t44 -79q4 -37 -9 -86t-14 -74q1 -46 39 -72t98 -24q248 0 351 493l213 1006q37 178 -123 178v27h516v-27q-67 0 -108.5 -39.5t-63.5 -138.5l-205 -961q-30 -143 -93.5 -255.5t-144.5 -179.5
t-170 -101.5t-180 -34.5z" />
    <glyph glyph-name="K" unicode="K" horiz-adv-x="1363" 
d="M920 0l-398 696l-94 -88l-86 -403q-37 -178 117 -178v-27h-520v27q67 0 108.5 39.5t63.5 138.5l217 1024q37 178 -117 178v27h520v-27q-67 0 -108.5 -39.5t-63.5 -138.5l-119 -561l582 536q56 52 78 92t11.5 63.5t-41.5 35.5t-81 12v27h520v-27q-210 0 -432 -201
l-377 -348l394 -670q53 -90 102.5 -125.5t116.5 -35.5v-27h-393z" />
    <glyph glyph-name="L" unicode="L" horiz-adv-x="1144" 
d="M-61 0v27q67 0 108.5 39.5t63.5 138.5l217 1024q37 178 -117 178v27h520v-27q-67 0 -108.5 -39.5t-63.5 -138.5l-225 -1063q-15 -71 2 -101t74 -30h122q180 0 310 94.5t229 294.5l25 -6l-181 -418h-976z" />
    <glyph glyph-name="M" unicode="M" horiz-adv-x="1843" 
d="M715 -20l-185 1214l-307 -893q-35 -99 -24 -159.5t48 -87.5t99 -27v-27h-469v27q94 0 172.5 66t126.5 208l338 971q-8 56 -51.5 95.5t-112.5 39.5v27h387l160 -1110l637 1110h313v-27q-70 0 -111 -40t-48 -140l-78 -1020q-13 -180 133 -180v-27h-551v27q82 0 128.5 40
t53.5 140l84 1010l-713 -1237h-30z" />
    <glyph glyph-name="N" unicode="N" horiz-adv-x="1384" 
d="M-127 0v27q95 0 166 68t102 214l172 815q30 145 -14 214t-139 69v27h319l654 -1080l163 770q30 145 -18 214t-148 69v27h478v-27q-94 0 -165 -68.5t-102 -214.5l-237 -1124h-35l-707 1137l-176 -828q-32 -145 25 -213.5t172 -68.5v-27h-510z" />
    <glyph glyph-name="O" unicode="O" horiz-adv-x="1531" 
d="M659 -23q-111 -1 -210 38t-170.5 108.5t-119 166t-56.5 211.5t18 244q30 130 91.5 244t143 197.5t179 144.5t202 92t209.5 33q115 3 216 -34.5t173.5 -107t120.5 -166.5t57 -212.5t-16 -245.5q-36 -162 -121.5 -297.5t-199 -225.5t-247.5 -139.5t-270 -50.5zM350 688
q-16 -111 -14 -211.5t29.5 -186.5t71 -148t111 -95.5t150.5 -28.5q127 8 245 103t204.5 259t118.5 363q17 117 16 222t-28 192t-72.5 148t-117 90.5t-161.5 19.5q-124 -13 -239.5 -110t-199.5 -260t-114 -357z" />
    <glyph glyph-name="P" unicode="P" horiz-adv-x="1220" 
d="M-61 0v27q67 0 108.5 39.5t63.5 138.5l217 1024q37 178 -117 178v27h584q89 0 162 -15t124 -40.5t89 -62t59.5 -77.5t31.5 -88t9.5 -93t-10.5 -93q-11 -50 -29 -94t-49 -88.5t-73 -80.5t-102 -67t-133.5 -51t-170.5 -29t-211 -4l6 22q98 -6 179.5 13t138.5 55t100 88.5
t68 110t38 123.5q9 61 11 122.5t-17.5 118t-52.5 100t-93 69.5t-139 26h-135l-254 -1194q-37 -178 174 -178v-27h-577z" />
    <glyph glyph-name="Q" unicode="Q" horiz-adv-x="1531" 
d="M1188 -598q-81 1 -153 28t-126 69.5t-104.5 93.5t-96.5 102.5t-91.5 94.5t-101 71t-114.5 30q-33 2 -48 -9.5t-14 -29t11 -42.5q23 -61 6 -105.5t-53.5 -69.5t-75.5 -24q-59 3 -94 40t-33 91q1 39 22 75t67.5 70.5t131 62t201.5 42.5q-150 36 -256 144t-145.5 263
t0.5 346q30 130 91.5 244t143 197.5t179 144.5t202 92t209.5 33q115 3 216 -34.5t173.5 -107t120.5 -166.5t57 -212.5t-16 -245.5q-36 -162 -121.5 -297.5t-199 -225.5t-247.5 -139.5t-270 -50.5h-10q-220 -20 -338 -69q62 23 138.5 9.5t142.5 -46.5t148 -78.5t154.5 -86.5
t162.5 -70.5t172 -30.5q156 -1 245.5 80.5t122.5 210.5l21 -7q-27 -232 -145.5 -361t-284.5 -126zM350 688q-16 -111 -14 -211.5t29.5 -186.5t71 -148t111 -95.5t150.5 -28.5q127 8 245 103t204.5 259t118.5 363q17 117 16 222t-28 192t-72.5 148t-117 90.5t-161.5 19.5
q-124 -13 -239.5 -110t-199.5 -260t-114 -357z" />
    <glyph glyph-name="R" unicode="R" horiz-adv-x="1314" 
d="M-61 0v27q67 0 108.5 39.5t63.5 138.5l217 1024q37 178 -117 178v27h645q73 0 133.5 -14t102.5 -38.5t73.5 -58t49.5 -72t26.5 -81t7.5 -84t-10 -82.5q-15 -70 -53.5 -130.5t-103.5 -112.5t-168 -83t-234 -35q48 -3 88 -15.5t82 -39t76.5 -76t58.5 -119.5l70 -194
q34 -96 81.5 -134t120.5 -38v-27h-389l-159 455q-61 159 -217 176l4 18q426 -5 505 367q11 57 12 110t-12 103.5t-39 87.5t-73 59.5t-111 22.5h-182l-254 -1194q-37 -178 117 -178v-27h-520z" />
    <glyph glyph-name="S" unicode="S" horiz-adv-x="1054" 
d="M438 -14q-38 0 -73 4.5t-68.5 14.5t-50.5 16t-49 20.5t-35 15.5q-30 11 -57.5 12.5t-53.5 -15.5t-35 -54h-28l104 549l29 -2q-10 -107 4 -200.5t50.5 -167.5t104.5 -117t160 -44q115 0 202 61t110 161q20 91 -17.5 178t-126.5 151l-202 148q-240 176 -185 401
q25 104 102 182t174.5 115.5t200.5 36.5q20 0 39.5 -1.5t35 -3.5t33.5 -6t29.5 -6.5t27.5 -8t24 -8.5t23 -9.5t19.5 -8.5t20 -9.5t17.5 -8.5q25 -9 48.5 -9t45.5 20t33 59h24l-110 -530l-29 2q25 223 -55 356t-224 139q-108 3 -183.5 -55.5t-96.5 -151.5q-19 -81 15.5 -160
t119.5 -143l201 -151q247 -185 190 -422q-18 -75 -58.5 -136t-92 -100.5t-113.5 -66t-123 -37.5t-121 -10z" />
    <glyph glyph-name="T" unicode="T" horiz-adv-x="1298" 
d="M297 0v27q67 0 109 39.5t63 138.5l254 1194h-113q-138 0 -258 -112t-186 -283l-27 4l154 426h1102l-29 -426l-29 -4q5 112 -22 199.5t-91 141.5t-157 54h-113l-252 -1194q-40 -178 115 -178v-27h-520z" />
    <glyph glyph-name="U" unicode="U" horiz-adv-x="1400" 
d="M602 -18q-116 0 -207 40t-150 119t-76 196.5t15 272.5l131 619q37 178 -116 178v27h520v-27q-67 0 -108.5 -39.5t-63.5 -138.5l-117 -549q-27 -118 -19.5 -218t41.5 -172.5t102 -113.5t163 -41q177 0 296.5 136t172.5 388l100 465q30 145 -18 214t-148 69v27h465v-27
q-89 0 -157.5 -68.5t-100.5 -214.5l-102 -483q-34 -164 -98.5 -292t-148 -207t-179 -119.5t-197.5 -40.5z" />
    <glyph glyph-name="V" unicode="V" horiz-adv-x="1353" 
d="M322 1229q-18 99 -59 138.5t-107 39.5v27h542v-27q-76 0 -113.5 -40.5t-21.5 -137.5l154 -932l491 856q38 66 46 116t-10.5 79.5t-54 44t-87.5 14.5v27h487v-27q-181 0 -327 -252l-699 -1196h-26z" />
    <glyph glyph-name="W" unicode="W" horiz-adv-x="2058" 
d="M1083 1229q-14 99 -53 138.5t-102 39.5v27h532v-27q-163 0 -137 -178l135 -920l461 842q51 91 45 148t-46 82.5t-110 25.5v27h484v-27q-84 0 -167.5 -61.5t-156.5 -192.5l-668 -1194h-26l-156 1040l-583 -1040h-29l-187 1270q-16 99 -56 138.5t-107 39.5v27h528v-27
q-151 0 -125 -178l131 -922l418 764z" />
    <glyph glyph-name="X" unicode="X" horiz-adv-x="1423" 
d="M748 0v27q33 0 57.5 8.5t40 27t14.5 53t-20 81.5l-189 460l-309 -399q-46 -59 -62.5 -104.5t-4 -72.5t43 -40.5t78.5 -13.5v-27h-499v27q209 0 389 229l348 442l-219 539q-40 95 -85.5 132.5t-109.5 37.5v27h549v-27q-45 0 -72.5 -15t-37.5 -52.5t18 -102.5l176 -430
l285 367q46 60 62 106t3.5 73t-43 40.5t-78.5 13.5v27h500v-27q-209 0 -389 -231l-322 -410l234 -569q38 -94 87 -132t120 -38v-27h-565z" />
    <glyph glyph-name="Y" unicode="Y" horiz-adv-x="1294" 
d="M358 1231q-27 99 -65 137.5t-98 38.5v27h532v-27q-155 0 -113 -176l144 -604l364 538q42 62 55 110t-2.5 76t-49 42t-83.5 14v27h433v-27q-134 0 -297 -242l-410 -598l-76 -362q-37 -178 117 -178v-27h-520v27q67 0 109 39.5t63 138.5l74 344z" />
    <glyph glyph-name="Z" unicode="Z" horiz-adv-x="1169" 
d="M-121 0l1127 1399h-312q-100 0 -184 -31t-148 -89t-111.5 -125.5t-88.5 -154.5l-25 5l168 430h1000l-1125 -1397h295q104 0 191.5 22t150.5 57t117.5 89.5t91 108.5t72.5 124l20 -6l-172 -432h-1067z" />
    <glyph glyph-name="bracketleft" unicode="[" horiz-adv-x="604" 
d="M-37 -436l426 1999h410l-6 -27h-207l-414 -1946h207l-6 -26h-410z" />
    <glyph glyph-name="backslash" unicode="\" horiz-adv-x="727" 
d="M659 -154l-628 1737l30 10l635 -1736z" />
    <glyph glyph-name="bracketright" unicode="]" horiz-adv-x="614" 
d="M653 1565l-426 -1999h-409l6 26h207l413 1946h-206l6 27h409z" />
    <glyph glyph-name="asciicircum" unicode="^" horiz-adv-x="1282" 
d="M231 563l-34 21l426 735h39l423 -733l-34 -23l-408 711z" />
    <glyph glyph-name="underscore" unicode="_" horiz-adv-x="1210" 
d="M90 -123l4 35h1024l-4 -35h-1024z" />
    <glyph glyph-name="grave" unicode="`" horiz-adv-x="1251" 
d="M670 1141l-381 354l252 -2l155 -340z" />
    <glyph glyph-name="a" unicode="a" horiz-adv-x="1107" 
d="M272 -20q-70 0 -122 39t-77 104t-30.5 151t16.5 181q55 257 231.5 428.5t383.5 171.5q117 0 209 -82l155 104l21 -16l-150 -688q-6 -29 -18 -81q-29 -130 -24 -158q3 -22 22 -23q36 -5 88 78.5t92 238.5l21 -6q-30 -123 -71.5 -213.5t-87.5 -139t-92 -68t-91 -11.5
q-34 7 -54.5 27t-29 48.5t-7 72.5t9.5 90t23 110l31 121q-53 -128 -122.5 -233t-157 -175.5t-169.5 -70.5zM303 573q-35 -113 -45 -205t3.5 -148.5t42.5 -87t71 -30.5q65 0 147 87.5t151 230.5t99 293q27 141 0.5 224t-100.5 83q-43 0 -92 -29t-98.5 -82.5t-97 -141
t-81.5 -194.5z" />
    <glyph glyph-name="b" unicode="b" horiz-adv-x="1073" 
d="M29 -20l-19 14l269 1255q20 87 -3 122.5t-92 35.5l2 27q105 7 185.5 28t169.5 76l16 -14l-41 -185l-162 -755q51 126 120.5 231t157.5 173.5t171 68.5q73 0 126 -38t79 -102t32 -149.5t-16 -179.5q-55 -256 -238 -428t-395 -172q-122 0 -235 71zM313 369
q-77 -346 82 -346q93 -2 201.5 117.5t175.5 328.5q36 113 46 204t-4 147.5t-43.5 86t-72.5 29.5q-66 0 -145 -83t-144.5 -215t-95.5 -269z" />
    <glyph glyph-name="c" unicode="c" horiz-adv-x="942" 
d="M412 -18q-177 2 -279 133.5t-78 339.5q18 162 104 300t217 219t275 81q113 0 180.5 -56t73.5 -143q4 -64 -25 -101t-73 -44q-51 -6 -85.5 21.5t-39.5 74.5q-4 37 22.5 86t22.5 74q-4 31 -27.5 45.5t-58.5 11.5q-115 -5 -222 -146t-136 -331q-32 -197 36 -319t203 -122
q124 0 227 110.5t148 307.5l21 -4q-50 -239 -193.5 -388.5t-312.5 -149.5z" />
    <glyph glyph-name="d" unicode="d" horiz-adv-x="1118" 
d="M272 -20q-70 0 -122 39t-77 104t-30.5 151t16.5 181q55 257 231.5 428.5t383.5 171.5q97 0 164 -60l49 252q18 89 -4 123.5t-90 36.5v27q104 7 184.5 28t167.5 76l18 -14l-39 -185l-204 -966q-6 -26 -16 -73q-13 -56 -18 -81t-8 -54.5t3 -41t20 -12.5q36 -5 87.5 78.5
t92.5 240.5l19 -6q-29 -124 -70.5 -215t-87 -139.5t-91.5 -67.5t-91 -10q-42 7 -65 33.5t-27.5 74.5t2 103.5t24.5 136.5l29 123q-38 -95 -88.5 -180t-108.5 -153.5t-124.5 -109t-129.5 -40.5zM299 573q-35 -113 -45 -205t4.5 -148.5t44.5 -87t72 -30.5q65 0 143 81.5
t146 223t100 300.5q29 145 4.5 229t-98.5 84q-92 0 -197.5 -118.5t-173.5 -328.5z" />
    <glyph glyph-name="e" unicode="e" horiz-adv-x="935" 
d="M399 -18q-174 0 -271 132.5t-71 344.5q14 123 69 235t135.5 191.5t183.5 126.5t210 47q104 0 168.5 -49t61.5 -131q-3 -94 -89 -173t-222.5 -125t-292.5 -53q-26 -194 39 -308t198 -114q120 0 221 113t150 307l22 -6q-51 -234 -195 -386t-317 -152zM283 549
q88 9 162 38.5t122.5 69.5t82.5 88t48 94t13 87q-3 46 -28.5 73t-66.5 27q-107 0 -204.5 -138.5t-126.5 -330.5q0 -4 -2 -8z" />
    <glyph glyph-name="f" unicode="f" horiz-adv-x="620" 
d="M-283 -383q125 7 209 126.5t125 324.5l180 888h-143l6 29q74 8 119 42t82 118q72 161 202.5 269.5t282.5 109.5q79 2 136.5 -27.5t74.5 -85.5q12 -31 9.5 -63t-26 -58t-59.5 -33q-59 -11 -100.5 26t-34.5 110q8 41 4.5 67.5t-39.5 26.5q-77 0 -152.5 -113.5
t-111.5 -290.5l-10 -45h262l-51 -82h-227l-166 -819q-27 -134 -84.5 -238.5t-135 -169.5t-167 -100t-187.5 -39z" />
    <glyph glyph-name="g" unicode="g" horiz-adv-x="1054" 
d="M328 -430q-103 0 -190 29.5t-139 73.5t-81 91.5t-29 88.5q0 30 12 52.5t36.5 37t51 24.5t65.5 15t69.5 7t73.5 3q-100 39 -136.5 168t-1.5 295q56 259 230.5 429.5t384.5 170.5q119 0 211 -82l153 102l23 -14l-232 -1061q-44 -203 -183 -316.5t-318 -113.5zM88 -135
q-3 -87 69.5 -174.5t164.5 -87.5q204 0 292 397l109 479q-52 -133 -121 -243t-156 -182.5t-170 -73.5q-97 -3 -141 -31t-47 -84zM303 573q-36 -115 -46 -207.5t4.5 -148.5t43.5 -85.5t70 -29.5q67 0 151 97.5t153 248.5t97 300q23 124 -2 198t-100 74q-92 0 -196.5 -115
t-174.5 -332z" />
    <glyph glyph-name="h" unicode="h" horiz-adv-x="1095" 
d="M555 -14q-78 0 -123 41.5t-45 95.5q0 49 32 88t85 39q52 0 82.5 -38.5t23.5 -98.5q-6 -41 7 -59t38 -15q30 3 66.5 39.5t70.5 98t57.5 157t24.5 203.5q1 203 -49 300t-116 97q-50 0 -115 -66t-128.5 -175.5t-121.5 -265.5t-92 -323l-23 -104h-217l267 1247
q20 88 -3.5 123t-91.5 35v29q108 7 188 27t167 75l16 -14l-39 -185l-180 -839q60 156 135.5 283t168.5 210.5t179 83.5q116 0 181.5 -108t56.5 -281q-5 -109 -46 -230.5t-106 -226.5t-158 -174t-192 -69z" />
    <glyph glyph-name="i" unicode="i" horiz-adv-x="522" 
d="M399 1219q-61 0 -95.5 40t-29.5 103q6 59 48.5 98t103.5 39t96 -39t29 -98q-5 -63 -47 -103t-105 -40zM94 932v26q107 7 187.5 27.5t167.5 75.5l18 -14l-41 -185l-102 -489q-7 -31 -19 -85q-29 -128 -24 -155q4 -21 22 -22q37 -5 88.5 78t91.5 239l19 -4
q-29 -124 -70.5 -215t-87 -139.5t-91.5 -67.5t-91 -10q-42 7 -65 33.5t-27.5 74.5t2 103.5t24.5 136.5l92 432q20 89 -2.5 123.5t-91.5 36.5z" />
    <glyph glyph-name="j" unicode="j" horiz-adv-x="501" 
d="M393 1219q-61 0 -97.5 40t-31.5 103q3 59 44 98t102 39t97.5 -39t31.5 -98q-3 -63 -44 -103t-102 -40zM-295 -410v27q124 7 208.5 126.5t127.5 324.5l154 704q20 87 -3 122.5t-92 35.5v26q105 7 186 28.5t169 76.5l16 -14l-39 -185l-153 -725q-28 -133 -85.5 -237.5
t-134.5 -170t-166.5 -100.5t-187.5 -39z" />
    <glyph glyph-name="k" unicode="k" horiz-adv-x="1050" 
d="M741 -18q-107 0 -186 99.5t-176 338.5q105 45 178 96l4 6q0 -2 2 -2q204 142 213 297q3 56 -20 87.5t-58 31.5q-43 0 -99 -57.5t-119 -167t-130 -295t-121 -416.5h-217l267 1247q20 88 -3.5 123t-91.5 35v29q108 7 188 27t167 75l16 -14l-39 -185l-205 -952
q110 337 243.5 503.5t279.5 166.5q69 0 110 -45t35 -115q-9 -108 -122.5 -219.5t-287.5 -169.5q113 -235 171 -319.5t110 -88.5q51 -3 101.5 78.5t86.5 233.5l21 -7q-43 -194 -129 -307.5t-189 -113.5z" />
    <glyph glyph-name="l" unicode="l" horiz-adv-x="512" 
d="M279 1247q20 88 -3.5 123t-91.5 35v29q108 7 188 27t167 75l16 -14l-39 -185l-203 -964q-6 -30 -18 -82q-12 -54 -17 -77.5t-8 -52t3 -39t20 -11.5q38 -5 89 78.5t91 240.5l19 -6q-56 -241 -149.5 -346t-190.5 -86q-41 7 -64 33.5t-27.5 74t2 104t23.5 136.5z" />
    <glyph glyph-name="m" unicode="m" horiz-adv-x="1705" 
d="M604 0l162 623q30 117 33.5 188t-14 97t-52.5 26q-67 0 -154.5 -114.5t-179 -332t-157.5 -487.5h-219l165 772q20 89 -2.5 123.5t-91.5 36.5v26q107 7 187.5 27.5t167.5 75.5l18 -14l-41 -185l-104 -485q108 324 251 503t289 179q235 0 129 -412l-67 -268
q115 324 248 502t280 178q245 0 131 -412l-80 -287q-8 -28 -22 -78q-15 -53 -21 -77t-10.5 -52.5t1 -39.5t19.5 -13q36 -7 92 74t105 234l19 -7q-69 -236 -169 -335.5t-196 -75.5q-41 10 -61.5 37.5t-22 75.5t8.5 103t32 134l78 283q20 71 30 125.5t9.5 89.5t-10 56.5
t-24.5 30.5t-36 9q-101 0 -233 -251.5t-263 -682.5h-225z" />
    <glyph glyph-name="n" unicode="n" horiz-adv-x="1136" 
d="M25 0l163 772q20 87 -3 122.5t-91 35.5v26q105 7 186 28.5t169 76.5l16 -14l-39 -185l-109 -506q110 326 259 514.5t305 188.5q117 0 156 -93.5t-11 -279.5l-90 -328q-8 -30 -24 -82q-15 -52 -21.5 -75.5t-11 -51.5t0.5 -38.5t19 -12.5q36 -7 93.5 74t107.5 234l18 -7
q-37 -122 -83.5 -210t-95 -133.5t-95.5 -62t-92 -5.5q-41 11 -62 38.5t-22.5 75.5t8.5 102.5t33 135.5l84 295q20 69 28.5 122.5t6 86t-13.5 53.5t-26.5 29t-35.5 8q-72 0 -163.5 -113.5t-185.5 -330.5t-161 -490h-217z" />
    <glyph glyph-name="o" unicode="o" horiz-adv-x="1060" 
d="M414 -18q-126 0 -218.5 74t-126 200.5t0.5 294.5q28 118 89.5 216.5t141.5 161.5t171.5 97.5t182.5 34.5q123 0 214 -72t125 -197t-1 -292q-27 -120 -88 -219.5t-140.5 -164t-170 -99.5t-180.5 -35zM297 512q-45 -244 -6.5 -372.5t145.5 -125.5q98 3 188 141t140 377
q46 241 11 370t-140 126q-103 -3 -197.5 -143.5t-140.5 -372.5z" />
    <glyph glyph-name="p" unicode="p" horiz-adv-x="1091" 
d="M-205 -410v27q66 0 107.5 39.5t62.5 138.5l215 977q18 88 -4.5 123t-91.5 35l2 26q103 7 184 28.5t170 76.5l17 -14l-41 -185l-68 -319q51 135 122.5 249.5t163 190.5t179.5 76q74 0 128.5 -39t81 -104t33 -151.5t-15.5 -180.5q-36 -169 -130.5 -307t-224 -215.5
t-265.5 -77.5q-117 0 -176 73l-56 -262q-40 -178 136 -178v-27h-529zM305 301q-29 -123 -2 -202t105 -79q95 0 200.5 117t173.5 328q36 113 46 205t-4 148.5t-43.5 87t-71.5 30.5q-67 0 -151 -96t-153 -243.5t-100 -295.5z" />
    <glyph glyph-name="q" unicode="q" horiz-adv-x="1118" 
d="M422 -410v27q67 0 108.5 39.5t63.5 138.5l145 690q-53 -135 -123.5 -246.5t-160 -185t-174.5 -73.5q-73 0 -126.5 39t-79 104t-32 151t15.5 181q36 169 130.5 307t224 215.5t268.5 77.5q118 0 190 -68l187 90l18 -16l-266 -1266q-40 -178 115 -178v-27h-504zM311 573
q-36 -113 -46 -205t3.5 -148.5t43 -87t71.5 -30.5q65 0 147.5 94t151.5 238t104 289q46 295 -100 295q-95 0 -201.5 -117.5t-173.5 -327.5z" />
    <glyph glyph-name="r" unicode="r" horiz-adv-x="823" 
d="M188 772q20 89 -2.5 123.5t-91.5 36.5v26q107 7 187.5 27.5t167.5 75.5l18 -14l-39 -185l-102 -483q46 156 88.5 269.5t91 206t101 143t110.5 59.5t101.5 -22t51.5 -83q7 -52 -20.5 -98.5t-83.5 -56.5q-42 -7 -75.5 15t-45.5 54q-23 55 -67 25q-50 -30 -145 -269.5
t-189 -621.5h-224z" />
    <glyph glyph-name="s" unicode="s" horiz-adv-x="790" 
d="M322 -23q-68 -1 -134 19.5t-120 66.5t-72 109q-15 54 3.5 98.5t61.5 59.5q42 15 82 -3.5t54 -58.5q13 -37 -7.5 -93.5t-17.5 -82.5q5 -38 42.5 -62.5t98.5 -21.5q63 2 114.5 38t64.5 99q14 65 -26 132t-142 169q-110 110 -154 195.5t-25 181.5q22 105 114 171.5t224 70.5
q105 3 192 -42t109 -128q15 -50 -3 -95.5t-62 -60.5q-40 -15 -77 2.5t-52 57.5q-11 41 -3 64.5t19.5 52t7.5 47.5q-6 31 -38 52.5t-80 20.5q-66 -2 -114.5 -43t-57.5 -104q-8 -59 23 -114.5t120 -141.5q108 -105 145 -154q89 -118 66 -241q-24 -125 -124 -192t-232 -69z" />
    <glyph glyph-name="t" unicode="t" horiz-adv-x="710" 
d="M268 -20q-122 0 -167 89t-13 242l135 645h-133l4 29q130 9 235 89.5t158 217.5h29l-53 -254h309l-53 -82h-277l-129 -620q-50 -234 68 -240q65 -3 140.5 82t133.5 223l21 -8q-62 -179 -177 -296t-231 -117z" />
    <glyph glyph-name="u" unicode="u" horiz-adv-x="1136" 
d="M233 -20q-236 0 -145 372l109 428q21 87 -1 122.5t-90 37.5l3 29q105 4 185.5 22t170.5 70l16 -14l-45 -183l-114 -461q-77 -299 38 -299q53 0 119 68t133 188.5t133 298.5t117 385h217l-139 -665q-38 -176 -39 -190q-9 -70 21 -72q36 -5 88 78.5t92 238.5l18 -4
q-29 -124 -70 -215t-86.5 -139.5t-91.5 -68t-92 -11.5q-34 7 -55 27t-30.5 48.5t-9 72.5t7.5 90.5t20 111.5l71 332q-109 -325 -253.5 -511.5t-297.5 -186.5z" />
    <glyph glyph-name="v" unicode="v" horiz-adv-x="1007" 
d="M387 -20q-144 0 -212.5 99t-45.5 294l45 401q9 88 -16 123t-97 37v27q203 22 332 108l21 -12l-64 -621q-16 -155 21 -235t139 -80q76 0 160.5 56.5t154 159.5t95.5 224q35 162 -16 239t-163 40q-61 -22 -110 10.5t-49 91.5q0 50 33.5 84t93.5 33t113.5 -31t94 -90.5
t51.5 -153t-14 -217.5q-34 -159 -124.5 -295t-209 -214t-233.5 -78z" />
    <glyph glyph-name="w" unicode="w" horiz-adv-x="1599" 
d="M276 -20q-124 0 -168 99t-2 310l78 385q7 36 7 61t-5.5 41.5t-20 26t-32 13.5t-45.5 6v24q190 19 342 113l16 -12l-116 -615q-24 -120 -19 -191t26.5 -99.5t61.5 -28.5q52 0 115 61.5t125 170.5t119 276.5t92 361.5l10 55h207l-102 -581q-28 -156 14 -250t145 -94
q114 0 232 133.5t157 316.5q35 167 -10.5 243t-156.5 38q-61 -20 -107.5 10.5t-44.5 89.5q-2 51 31.5 83.5t93.5 31.5q80 -1 142.5 -52t93.5 -154.5t-3 -260.5q-35 -168 -125 -309.5t-206.5 -222t-229.5 -80.5q-143 0 -211 107t-32 308l34 197q-93 -281 -231 -446.5
t-275 -165.5z" />
    <glyph glyph-name="x" unicode="x" horiz-adv-x="1017" 
d="M584 -12q-138 24 -158 313l-6 96q-70 -174 -153 -287.5t-173 -127.5q-53 -10 -100 22t-55 82q-7 53 19.5 99.5t86.5 56.5q42 7 72.5 -14t44.5 -54q8 -17 14 -26t15 -15.5t20 -3.5t25 14q29 20 79 109.5t99 210.5l-15 207q-10 150 -33.5 211t-66.5 61q-39 0 -93.5 -74
t-111.5 -229l-20 8q86 235 178.5 327t191.5 73q76 -13 111.5 -96t46.5 -238l4 -45q64 169 135 271t158 116q56 10 102 -22t54 -83q7 -56 -20.5 -100.5t-86.5 -54.5q-41 -7 -73 14t-44 53q-9 23 -16.5 33t-20.5 12.5t-30 -12.5q-55 -40 -154 -285l21 -245q10 -150 34 -211.5
t66 -61.5q41 0 94.5 73t110.5 230l18 -8q-45 -125 -93.5 -210t-96 -127t-91 -56t-89.5 -6z" />
    <glyph glyph-name="y" unicode="y" horiz-adv-x="1071" 
d="M352 -430q-107 0 -197 29t-144 73t-83.5 90.5t-29.5 85.5q0 34 16.5 59t41 39t63.5 23.5t71.5 13t77.5 5.5q-169 48 -72 420l101 376q22 89 1.5 124t-89.5 38l2 27q108 4 188.5 20.5t169.5 67.5l16 -14l-49 -183l-112 -432q-22 -78 -31.5 -136.5t-9 -94.5t10.5 -58
t24.5 -30.5t35.5 -8.5q53 0 119 68t133 188.5t133 298.5t117 385h217l-223 -1044q-43 -203 -183 -316.5t-315 -113.5zM100 -137q-3 -86 71.5 -173t174.5 -87q54 0 100.5 31.5t81 88t59.5 125t44 152.5l145 676q-107 -323 -252 -509.5t-297 -186.5h-4q-117 -19 -123 -117z
" />
    <glyph glyph-name="z" unicode="z" horiz-adv-x="894" 
d="M578 -18q-57 0 -104 32t-78.5 77.5t-59.5 92t-61 80t-70 35.5q-33 3 -48.5 -19.5t-2.5 -46.5q1 -5 28.5 -44t28.5 -74q2 -54 -32 -91.5t-91 -37.5q-49 0 -84 36t-35 87q0 43 30 88t110 112l606 555h-217q-56 0 -93 -2.5t-82.5 -12.5t-77.5 -29t-62.5 -53t-51.5 -83l-20 6
l118 348h699l8 -20l-762 -690h4q52 7 108 -15.5t97 -53t97 -57t108 -26.5q85 0 145.5 66.5t73.5 175.5h16q-2 -202 -66.5 -319t-178.5 -117z" />
    <glyph glyph-name="braceleft" unicode="{" horiz-adv-x="641" 
d="M393 -436q-55 0 -97.5 7.5t-78.5 24.5t-59 46.5t-35 72.5t-10 103.5t18 138.5l72 338q30 127 9 186t-106 60l7 32q87 3 131 57t71 181l88 416q73 336 416 336l-6 -27q-42 0 -77 -27t-60.5 -78t-43.5 -110.5t-34 -138.5l-70 -344q-13 -63 -40.5 -112.5t-61 -79.5
t-74.5 -49.5t-77.5 -27t-73.5 -8.5l-2 -8q33 0 62 -5t58.5 -18t49.5 -34t34.5 -52.5t14.5 -75t-10 -100.5l-58 -286q-11 -53 -17.5 -85t-13.5 -75.5t-8.5 -68.5t-2 -55.5t6 -47.5t16.5 -33t27.5 -22.5t40.5 -6.5z" />
    <glyph glyph-name="bar" unicode="|" horiz-adv-x="268" 
d="M-82 -342l391 1839h41l-391 -1839h-41z" />
    <glyph glyph-name="braceright" unicode="}" horiz-adv-x="638" 
d="M256 1565q55 0 97.5 -7.5t78.5 -24.5t59 -47t35 -73t10 -103.5t-18 -138.5l-72 -337q-30 -127 -9 -186t106 -60l-6 -33q-87 -3 -131.5 -57.5t-71.5 -180.5l-88 -415q-73 -336 -416 -336l6 26q42 0 77 27t60.5 78.5t43.5 111t34 138.5l70 344q16 78 53.5 134.5t86 85.5
t95 42t93.5 14l2 8q-33 0 -62 5t-58.5 18t-49.5 34t-34.5 52.5t-14.5 75t10 100.5l57 287q11 53 17 85t13.5 75t9 68.5t2 56t-6 47t-16.5 32.5t-27.5 22.5t-40.5 6.5z" />
    <glyph glyph-name="asciitilde" unicode="~" horiz-adv-x="1429" 
d="M358 541q-38 -26 -78.5 -16t-50.5 50q-16 46 5 109t71 104q96 84 234 70t288 -115q101 -64 185.5 -93t129.5 -24.5t60 29.5q6 12 0 16.5t-27 8.5t-34 10q-35 15 -43.5 43.5t4.5 56t37 44.5q40 25 80.5 14.5t50.5 -49.5q18 -45 -4.5 -108t-73.5 -105q-97 -83 -231.5 -70.5
t-288.5 115.5q-102 64 -186.5 92.5t-129 24t-59.5 -28.5q-7 -12 -1 -17t27.5 -8.5t34.5 -9.5q35 -15 43.5 -43t-5 -55t-38.5 -45z" />
    <glyph glyph-name="exclamdown" unicode="&#xa1;" horiz-adv-x="524" 
d="M307 694q-36 -155 -43.5 -326.5t-10 -326.5t-24.5 -262q-19 -86 -63 -125t-100 -39q-57 0 -84.5 43t-8.5 129q24 105 83.5 256t124 323.5t100.5 327.5h26zM203 944q6 62 48 102.5t103 40.5t96 -40.5t29 -102.5q-5 -59 -46.5 -98t-102.5 -39q-62 0 -97 38.5t-30 98.5z" />
    <glyph glyph-name="cent" unicode="&#xa2;" horiz-adv-x="962" 
d="M481 195h-2l-43 -195h-37l43 197q-154 15 -240 139.5t-65 312.5q16 148 92.5 276.5t193 208.5t247.5 91l47 209h37l-45 -207h2q108 0 172.5 -54t70.5 -137q4 -63 -24.5 -98.5t-69.5 -40.5q-50 -6 -82.5 19.5t-38.5 70.5q-3 35 22 83t21 73q-3 30 -25.5 43t-56.5 10
l-190 -868q37 -13 78 -13q117 0 221 109.5t149 292.5l21 -4q-52 -223 -194.5 -370.5t-303.5 -147.5zM356 739q-23 -144 9.5 -247.5t109.5 -147.5l189 846q-103 -27 -193.5 -156.5t-114.5 -294.5z" />
    <glyph glyph-name="sterling" unicode="&#xa3;" horiz-adv-x="1193" 
d="M737 -18q-68 0 -129.5 22.5t-105 56t-87 74t-76 75.5t-71 60t-73.5 29q-38 3 -55.5 -19t-6.5 -47q3 -9 18.5 -27t27 -41t11.5 -50q2 -55 -31 -92t-91 -37q-48 0 -84.5 35t-36.5 85q0 109 135 193q3 2 24 14.5t27.5 17t27 18.5t29.5 23t28 26.5t29 32.5t25.5 37.5t25.5 45
t20.5 52t17.5 61.5v4h-207l10 31h205l68 288q26 109 73 199t103.5 151t123.5 103.5t133 61.5t132 20q116 1 189.5 -40t93.5 -104q20 -47 -1.5 -95t-76.5 -58q-59 -11 -99.5 25.5t-33.5 109.5q1 34 3 63.5t-16.5 49.5t-62.5 20q-101 0 -187 -123t-133 -338l-63 -290
q-2 -7 -5 -21.5t-5 -21.5h307l-10 -31h-308q-86 -247 -358 -303q50 -4 123 -29t136 -52.5t143 -50t145 -22.5q119 0 204 69t107 185h18q-9 -204 -100.5 -325t-249.5 -121z" />
    <glyph glyph-name="currency" unicode="&#xa4;" horiz-adv-x="980" 
d="M489 317q-145 0 -253 103l-101 -103l-26 31l96 103q-94 112 -94 264t98 268l-100 107l28 28l101 -104q111 100 251 100q141 0 252 -100l101 106l26 -30l-100 -105q100 -114 100 -270q0 -150 -96 -264l98 -105l-28 -29l-99 103q-108 -103 -254 -103zM147 715
q0 -151 99 -256t243 -105q143 0 242.5 105t99.5 256t-100 256.5t-242 105.5q-144 0 -243 -105.5t-99 -256.5z" />
    <glyph glyph-name="yen" unicode="&#xa5;" horiz-adv-x="1294" 
d="M207 440l6 9h-4l27 34h284l15 66l-177 682q-27 99 -65 137.5t-98 38.5v27h532v-27q-155 0 -113 -176l144 -604l364 538q42 62 55 110t-2.5 76t-49 42t-83.5 14v27h433v-27q-134 0 -297 -242l-410 -598l-16 -84h307l-6 -8h4l-27 -35h-289l-49 -235q-37 -178 117 -178v-27
h-520v27q67 0 109 39.5t63 138.5l49 235h-303z" />
    <glyph glyph-name="brokenbar" unicode="&#xa6;" horiz-adv-x="268" 
d="M147 739l162 758h41l-162 -758h-41zM-82 -342l162 758h41l-162 -758h-41z" />
    <glyph glyph-name="section" unicode="&#xa7;" horiz-adv-x="995" 
d="M315 -254q-118 0 -213 65.5t-112 159.5q-11 55 13.5 102.5t74.5 59.5q46 12 84.5 -10.5t44.5 -65.5q3 -32 -12 -80.5t-13 -74.5q1 -53 46 -87t108 -36q76 -3 139.5 45.5t81.5 130.5q20 80 -20 143t-144 129l-129 66q-24 13 -46.5 29t-47.5 39.5t-42.5 50t-31.5 60
t-14.5 70.5t8.5 81q24 88 99.5 153t164.5 88q-142 122 -100 283q33 133 154.5 216t271.5 83q116 0 209.5 -60.5t111.5 -156.5q10 -52 -13.5 -100.5t-72.5 -59.5q-46 -12 -85.5 10t-43.5 64q-4 31 8 79t11 70q-1 60 -42 92.5t-108 30.5q-81 0 -139 -48.5t-72 -123.5
q-16 -79 26 -139t132 -117l150 -80q104 -61 149.5 -138t20.5 -183q-26 -101 -99.5 -163t-165.5 -85q134 -121 91 -287q-33 -135 -157 -220t-276 -85zM262 723q-32 -139 144 -236l155 -81q21 -12 80 -54q88 42 109 133q12 52 -4.5 95.5t-48 72t-81.5 56.5l-153 82
q-61 35 -94 63q-37 -18 -67 -53.5t-40 -77.5z" />
    <glyph glyph-name="dieresis" unicode="&#xa8;" horiz-adv-x="833" 
d="M498 1208q-57 0 -89 39.5t-24 98.5q9 57 51 94t99 37q59 0 89.5 -36.5t22.5 -94.5q-8 -60 -49 -99t-100 -39zM0 1346q9 58 50 94.5t100 36.5q57 0 88.5 -37t23.5 -94q-8 -59 -49.5 -98.5t-99.5 -39.5q-57 0 -88 39t-25 99z" />
    <glyph glyph-name="copyright" unicode="&#xa9;" horiz-adv-x="1486" 
d="M606 61q-106 0 -196.5 33.5t-154.5 93.5t-105.5 143.5t-49.5 183t13 212.5q29 135 104 257t178.5 210.5t232.5 140t261 51.5q103 0 192 -33.5t152 -93t104.5 -142t49.5 -181t-13 -209.5q-38 -183 -154 -336.5t-279 -241.5t-335 -88zM158 727q-30 -131 -6.5 -244
t82.5 -197t159 -132t223 -48q160 0 311 82t258.5 225t143.5 314q36 168 -10.5 309.5t-163 223t-276.5 81.5q-164 0 -317 -81.5t-260 -222.5t-144 -310zM410 727q34 157 167 268t285 111q113 0 175 -66.5t42 -148.5q-7 -42 -37 -70t-65 -30q-40 -4 -56.5 25.5t-2.5 68.5
q6 16 24.5 48t20.5 52q6 37 -22.5 63.5t-72.5 26.5q-93 0 -181 -81.5t-114 -200.5q-30 -141 31.5 -228.5t175.5 -87.5q91 0 163 49.5t106 132.5l22 -4q-48 -132 -152 -219.5t-235 -87.5q-101 0 -171.5 52t-97 138.5t-5.5 188.5z" />
    <glyph glyph-name="guillemotleft" unicode="&#xab;" horiz-adv-x="878" 
d="M362 76l-288 452l475 426l20 -14l-315 -414l135 -438zM401 528l473 426l21 -14l-315 -414l135 -438l-27 -12z" />
    <glyph glyph-name="logicalnot" unicode="&#xac;" horiz-adv-x="1267" 
d="M1030 270v412h-833v39h874v-451h-41z" />
    <glyph glyph-name="registered" unicode="&#xae;" horiz-adv-x="980" 
d="M379 739q-169 0 -257 123t-50 303q25 115 97.5 211.5t176 152.5t213.5 56q167 0 256 -122.5t51 -297.5q-38 -180 -179 -303t-308 -123zM106 1165q-34 -165 47 -277t234 -112q154 0 281 112.5t161 276.5q34 161 -45.5 272t-232.5 111q-152 0 -281 -111t-164 -272zM240 950
l4 19q42 -5 49 41l67 313q5 26 -5.5 34.5t-26.5 6.5l4 18h198q71 0 99 -36t18 -84q-8 -46 -51.5 -79.5t-114.5 -33.5h-4q73 0 92 -57l25 -74q16 -54 63 -49l-4 -19h-141l-53 152q-3 8 -5.5 12.5t-8 12t-14 11t-19.5 3.5l-29 -131q-5 -25 5 -34t28 -7l-2 -19h-174zM418 1161
h28q44 0 71.5 29t37.5 72q8 43 -7 71.5t-59 28.5h-28z" />
    <glyph glyph-name="macron" unicode="&#xaf;" horiz-adv-x="1251" 
d="M246 1268l22 106h584l-23 -106h-583z" />
    <glyph glyph-name="degree" unicode="&#xb0;" horiz-adv-x="643" 
d="M424 930q-101 0 -165.5 77.5t-47.5 184.5q17 106 105.5 183t189.5 77q100 0 164 -77t47 -183q-17 -107 -105 -184.5t-188 -77.5zM256 1192q-13 -92 39 -156.5t135 -64.5t156 64.5t86 156.5q15 91 -37 155t-135 64t-156 -64t-88 -155z" />
    <glyph glyph-name="plusminus" unicode="&#xb1;" horiz-adv-x="1259" 
d="M211 780l8 41h414l53 250h41l-53 -250h411l-8 -41h-411l-54 -248h-41l54 248h-414zM119 350l10 41h866l-10 -41h-866z" />
    <glyph glyph-name="acute" unicode="&#xb4;" horiz-adv-x="1251" 
d="M657 1141l-24 12l192 340l252 2z" />
    <glyph glyph-name="paragraph" unicode="&#xb6;" horiz-adv-x="1138" 
d="M287 -317q-131 0 -215 69.5t-95 175.5q-7 59 27 102.5t86 49.5q50 4 85.5 -25.5t43.5 -79.5q4 -31 -6.5 -72.5t-9.5 -68.5q4 -53 39.5 -79.5t95.5 -24.5q103 2 193.5 88t127.5 262l281 1323h-164l-164 -766q-219 0 -329 111.5t-70 298.5q38 177 182.5 278t354.5 109h452
v-27q-99 0 -172.5 -68.5t-105.5 -214.5l-213 -1011q-25 -119 -69.5 -205t-101.5 -134t-119 -69.5t-134 -21.5z" />
    <glyph glyph-name="periodcentered" unicode="&#xb7;" horiz-adv-x="466" 
d="M231 422q-61 0 -96 40.5t-29 102.5q5 59 47 98t103 39q62 0 97 -38.5t30 -98.5q-6 -62 -48.5 -102.5t-103.5 -40.5z" />
    <glyph glyph-name="cedilla" unicode="&#xb8;" horiz-adv-x="1251" 
d="M567 -424q-75 -9 -129 13.5t-67 74.5q-9 37 6 64t45 36q28 8 53.5 -5t32.5 -40q6 -26 -3 -56t-7 -40q6 -32 43 -26q48 6 90.5 63t36.5 113q-8 63 -67 79.5t-134 -24.5l-8 22l348 211l8 -22l-194 -119q98 3 146 -50.5t28 -123.5q-19 -71 -86 -116.5t-142 -53.5z" />
    <glyph glyph-name="guillemotright" unicode="&#xbb;" horiz-adv-x="878" 
d="M328 76l-19 12l320 438l-140 414l29 14l289 -426zM-18 88l321 438l-141 414l28 14l291 -426l-481 -452z" />
    <glyph glyph-name="onequarter" unicode="&#xbc;" horiz-adv-x="1200" 
d="M176 780q56 0 87.5 18.5t41.5 69.5l96 453q8 34 -2 47.5t-43 13.5h-71l2 27q87 0 161 32t105 99h27l-144 -672q-10 -50 14.5 -69t77.5 -19l-2 -24h-354zM-43 6l1239 1436l27 -21l-1235 -1435zM547 172l4 29l524 575h27l-111 -520h105l-19 -84h-102l-14 -63
q-11 -50 9 -69.5t66 -19.5l-2 -24h-319l4 24q45 0 71.5 19t36.5 70l15 63h-295zM643 256h215l70 324z" />
    <glyph glyph-name="onehalf" unicode="&#xbd;" horiz-adv-x="1292" 
d="M176 780q56 0 87.5 18.5t41.5 69.5l96 453q8 34 -2 47.5t-43 13.5h-71l2 27q87 0 161 32t105 99h27l-144 -672q-10 -50 14.5 -69t77.5 -19l-2 -24h-354zM-43 6l1239 1436l27 -21l-1235 -1435zM645 -4l6 27q212 176 308 284t118 211q19 84 -11.5 131t-86.5 47
q-55 0 -100.5 -37.5t-69.5 -99.5l-27 2q30 96 107.5 154.5t167.5 56.5q86 -2 134.5 -67t29.5 -158q-6 -29 -16.5 -55t-32 -55t-37.5 -50t-53.5 -54t-58 -51t-73 -57.5t-76.5 -57t-90 -65.5h172q93 0 129 23t74 102l23 -6l-95 -225h-442z" />
    <glyph glyph-name="threequarters" unicode="&#xbe;" horiz-adv-x="1271" 
d="M346 743q-82 0 -134.5 43t-45.5 113q3 32 23.5 54t48.5 22q26 0 41.5 -19t15.5 -43q-2 -21 -14.5 -43.5t-14.5 -35.5q-6 -28 13 -44t57 -16q59 1 113 56t69 126q19 89 -21.5 144.5t-125.5 54.5l6 27q70 5 119.5 42.5t64.5 100.5q13 63 -15 97t-77 34q-39 0 -79.5 -25
t-70.5 -77l-22 6q32 74 96 122.5t148 47.5q75 -2 118.5 -51t28.5 -125q-12 -52 -57 -95t-101 -55q73 -18 111.5 -81t20.5 -146q-22 -108 -114.5 -171t-201.5 -63zM33 6l1239 1436l26 -21l-1235 -1435zM629 172l4 29l524 575h27l-111 -520h105l-19 -84h-102l-15 -63
q-11 -50 9.5 -69.5t66.5 -19.5l-2 -24h-319l4 24q45 0 71.5 19t36.5 70l15 63h-295zM725 256h215l70 324z" />
    <glyph glyph-name="questiondown" unicode="&#xbf;" horiz-adv-x="868" 
d="M498 674q-12 -86 -47 -164t-79 -140t-88.5 -123.5t-84 -139.5t-58.5 -162q-17 -93 -3 -171t62 -129t117 -51q58 0 96 32t50 75q9 38 -7 87.5t-16 70.5q0 60 34.5 97.5t88.5 37.5q61 0 92 -37.5t31 -91.5q-1 -47 -30.5 -98.5t-80 -96t-127 -73.5t-161.5 -29t-160 29.5
t-127 80t-74 124.5t-4 157q13 61 47 118t79.5 102.5t98 90t105 89.5t98 91.5t80.5 104.5t49 121zM389 905q6 62 48.5 103t103.5 41t96 -41t29 -103q-5 -59 -47 -98t-103 -39q-62 0 -97 38.5t-30 98.5z" />
    <glyph glyph-name="Agrave" unicode="&#xc0;" horiz-adv-x="1339" 
d="M-139 0v27q83 0 165.5 61.5t157.5 192.5l541 958q-26 102 -135 109v26q176 0 311 107l21 -11l190 -1265q14 -98 57 -138t113 -40v-27h-532v27q157 0 131 178l-35 237h-522l-66 -118q-60 -105 -52.5 -170t55.5 -94t132 -29v-31h-532zM344 477h498l-103 709zM522 1794
l277 -2l121 -266l-27 -15z" />
    <glyph glyph-name="Aacute" unicode="&#xc1;" horiz-adv-x="1339" 
d="M-139 0v27q83 0 165.5 61.5t157.5 192.5l541 958q-26 102 -135 109v26q176 0 311 107l21 -11l190 -1265q14 -98 57 -138t113 -40v-27h-532v27q157 0 131 178l-35 237h-522l-66 -118q-60 -105 -52.5 -170t55.5 -94t132 -29v-31h-532zM344 477h498l-103 709zM840 1526
l123 266l272 2l-369 -283z" />
    <glyph glyph-name="Acircumflex" unicode="&#xc2;" horiz-adv-x="1339" 
d="M-139 0v27q83 0 165.5 61.5t157.5 192.5l541 958q-26 102 -135 109v26q176 0 311 107l21 -11l190 -1265q14 -98 57 -138t113 -40v-27h-532v27q157 0 131 178l-35 237h-522l-66 -118q-60 -105 -52.5 -170t55.5 -94t132 -29v-31h-532zM344 477h498l-103 709zM532 1516
l365 270h41l250 -270l-25 -21l-280 123l-332 -123z" />
    <glyph glyph-name="Atilde" unicode="&#xc3;" horiz-adv-x="1339" 
d="M-139 0v27q83 0 165.5 61.5t157.5 192.5l541 958q-26 102 -135 109v26q176 0 311 107l21 -11l190 -1265q14 -98 57 -138t113 -40v-27h-532v27q157 0 131 178l-35 237h-522l-66 -118q-60 -105 -52.5 -170t55.5 -94t132 -29v-31h-532zM344 477h498l-103 709zM557 1518
q27 102 89 168t153 65q37 -1 70.5 -19t55 -39.5t55 -39t71.5 -17.5q89 -2 141 109l27 -2q-25 -99 -82.5 -165t-149.5 -65q-38 1 -74 19.5t-59.5 40t-55.5 39.5t-65 18q-52 1 -90.5 -34t-56.5 -80z" />
    <glyph glyph-name="Adieresis" unicode="&#xc4;" horiz-adv-x="1339" 
d="M-139 0v27q83 0 165.5 61.5t157.5 192.5l541 958q-26 102 -135 109v26q176 0 311 107l21 -11l190 -1265q14 -98 57 -138t113 -40v-27h-532v27q157 0 131 178l-35 237h-522l-66 -118q-60 -105 -52.5 -170t55.5 -94t132 -29v-31h-532zM344 477h498l-103 709zM573 1683
q9 58 50 95t100 37q57 0 89 -37.5t24 -94.5q-8 -59 -50 -98t-100 -39t-88.5 38.5t-24.5 98.5zM958 1683q9 57 51 94.5t99 37.5q59 0 90 -37t23 -95q-8 -59 -49.5 -98t-100.5 -39q-57 0 -89 39t-24 98z" />
    <glyph glyph-name="Aring" unicode="&#xc5;" horiz-adv-x="1339" 
d="M-139 0v27q83 0 165.5 61.5t157.5 192.5l541 958q-26 102 -135 109v26q176 0 311 107l21 -11l190 -1265q14 -98 57 -138t113 -40v-27h-532v27q157 0 131 178l-35 237h-522l-66 -118q-60 -105 -52.5 -170t55.5 -94t132 -29v-31h-532zM344 477h498l-103 709zM662 1677
q7 75 66 128t134 53t122 -53t38 -128q-9 -76 -67.5 -128t-133.5 -52t-121.5 52t-37.5 128zM705 1677q-6 -56 29.5 -95.5t92.5 -39.5q56 0 100 40t50 95q6 56 -29 95.5t-90 39.5q-57 0 -101 -39.5t-52 -95.5z" />
    <glyph glyph-name="AE" unicode="&#xc6;" horiz-adv-x="2062" 
d="M-139 0v27q176 0 368 221l809 936q50 57 66 101t0.5 70t-52 39t-91.5 13v27h1112l-33 -424l-25 -2q8 198 -64 294.5t-233 96.5h-284l-140 -651h230q103 0 159.5 50.5t83.5 180.5h29l-110 -524h-27q27 139 -8 198.5t-138 59.5h-225l-121 -568q-13 -60 4.5 -85t79.5 -25
h209q164 0 297.5 103t222.5 292l23 -4l-164 -426h-936l96 455h-534l-178 -205q-50 -57 -65 -101t2.5 -70t55.5 -39t95 -13v-27h-514zM496 492h512l166 782z" />
    <glyph glyph-name="Ccedilla" unicode="&#xc7;" horiz-adv-x="1415" 
d="M518 -434q-75 -9 -129 13.5t-67 74.5q-9 37 6 64t45 36q28 8 53.5 -5t32.5 -40q6 -26 -3 -56t-7 -40q7 -33 43 -27q48 6 90 63t36 113q-8 63 -66.5 80t-133.5 -24l-8 22l227 137q-99 2 -184.5 32t-150 82t-111 125t-69.5 159.5t-23 186.5t26 204q51 200 179 359
t295.5 245t342.5 88q76 1 142.5 -16.5t103 -38.5t72 -38.5t57.5 -16.5q68 3 98 94l31 -2l-82 -545l-27 2q7 238 -98 381.5t-281 148.5q-136 2 -265 -79.5t-221.5 -224t-125.5 -312.5q-39 -196 10 -353t170 -241.5t287 -77.5q164 9 301 114t221 275l23 -6
q-92 -228 -272 -380.5t-404 -164.5l-111 -67q98 3 146 -50.5t28 -123.5q-19 -71 -85.5 -116.5t-141.5 -53.5z" />
    <glyph glyph-name="Egrave" unicode="&#xc8;" horiz-adv-x="1224" 
d="M-61 0v27q67 0 108.5 39.5t63.5 138.5l217 1024q37 178 -117 178v27h1024l-33 -424l-24 -2q8 199 -63 295t-232 96h-285l-139 -651h227q103 0 160.5 50.5t85.5 180.5h26l-110 -524h-27q27 139 -7.5 198.5t-137.5 59.5h-223l-121 -568q-13 -60 4 -85t80 -25h207
q164 0 297.5 103t222.5 292l22 -4l-164 -426h-1062zM459 1802l276 -2l121 -266l-27 -14z" />
    <glyph glyph-name="Eacute" unicode="&#xc9;" horiz-adv-x="1224" 
d="M-61 0v27q67 0 108.5 39.5t63.5 138.5l217 1024q37 178 -117 178v27h1024l-33 -424l-24 -2q8 199 -63 295t-232 96h-285l-139 -651h227q103 0 160.5 50.5t85.5 180.5h26l-110 -524h-27q27 139 -7.5 198.5t-137.5 59.5h-223l-121 -568q-13 -60 4 -85t80 -25h207
q164 0 297.5 103t222.5 292l22 -4l-164 -426h-1062zM778 1534l123 266l273 2l-369 -282z" />
    <glyph glyph-name="Ecircumflex" unicode="&#xca;" horiz-adv-x="1224" 
d="M-61 0v27q67 0 108.5 39.5t63.5 138.5l217 1024q37 178 -117 178v27h1024l-33 -424l-24 -2q8 199 -63 295t-232 96h-285l-139 -651h227q103 0 160.5 50.5t85.5 180.5h26l-110 -524h-27q27 139 -7.5 198.5t-137.5 59.5h-223l-121 -568q-13 -60 4 -85t80 -25h207
q164 0 297.5 103t222.5 292l22 -4l-164 -426h-1062zM471 1524l365 270h41l249 -270l-24 -21l-281 123l-332 -123z" />
    <glyph glyph-name="Edieresis" unicode="&#xcb;" horiz-adv-x="1224" 
d="M-61 0v27q67 0 108.5 39.5t63.5 138.5l217 1024q37 178 -117 178v27h1024l-33 -424l-24 -2q8 199 -63 295t-232 96h-285l-139 -651h227q103 0 160.5 50.5t85.5 180.5h26l-110 -524h-27q27 139 -7.5 198.5t-137.5 59.5h-223l-121 -568q-13 -60 4 -85t80 -25h207
q164 0 297.5 103t222.5 292l22 -4l-164 -426h-1062zM512 1694q9 58 50 94.5t100 36.5q57 0 88.5 -37t23.5 -94q-8 -59 -49.5 -98.5t-99.5 -39.5q-57 0 -88 39t-25 99zM897 1694q9 57 51 94t99 37q59 0 89.5 -36.5t22.5 -94.5q-8 -60 -49 -99t-100 -39q-57 0 -89 39.5
t-24 98.5z" />
    <glyph glyph-name="Igrave" unicode="&#xcc;" horiz-adv-x="593" 
d="M-59 0v27q66 0 107.5 39.5t62.5 138.5l217 1024q37 178 -117 178v27h526v-27q-67 0 -109 -39.5t-63 -138.5l-215 -1024q-37 -178 115 -178v-27h-524zM180 1802l277 -2l121 -266l-27 -14z" />
    <glyph glyph-name="Iacute" unicode="&#xcd;" horiz-adv-x="593" 
d="M-59 0v27q66 0 107.5 39.5t62.5 138.5l217 1024q37 178 -117 178v27h526v-27q-67 0 -109 -39.5t-63 -138.5l-215 -1024q-37 -178 115 -178v-27h-524zM500 1534l123 266l272 2l-369 -282z" />
    <glyph glyph-name="Icircumflex" unicode="&#xce;" horiz-adv-x="593" 
d="M-59 0v27q66 0 107.5 39.5t62.5 138.5l217 1024q37 178 -117 178v27h526v-27q-67 0 -109 -39.5t-63 -138.5l-215 -1024q-37 -178 115 -178v-27h-524zM190 1524l365 270h41l250 -270l-25 -21l-280 123l-332 -123z" />
    <glyph glyph-name="Idieresis" unicode="&#xcf;" horiz-adv-x="593" 
d="M-59 0v27q66 0 107.5 39.5t62.5 138.5l217 1024q37 178 -117 178v27h526v-27q-67 0 -109 -39.5t-63 -138.5l-215 -1024q-37 -178 115 -178v-27h-524zM233 1694q9 58 50 94.5t100 36.5q57 0 89 -37t24 -94q-8 -59 -50 -98.5t-100 -39.5q-57 0 -88 39t-25 99zM618 1694
q9 57 51 94t99 37q59 0 90 -36.5t23 -94.5q-8 -59 -49.5 -98.5t-100.5 -39.5q-57 0 -89 39.5t-24 98.5z" />
    <glyph glyph-name="Eth" unicode="&#xd0;" horiz-adv-x="1406" 
d="M86 702l8 37h125l109 492q40 176 -115 176v27h561q105 0 195 -20.5t157.5 -58.5t119.5 -90.5t84 -116.5t48 -137.5t14 -152.5t-20 -162q-72 -324 -312 -510t-616 -186h-518v27q67 0 109.5 39t64.5 137l111 499h-125zM322 154q-6 -28 -8.5 -44.5t0.5 -31t10.5 -21.5
t25.5 -12t42 -6.5t63 -1.5q125 0 235 49t193.5 138t144.5 211.5t94 271.5q25 109 27 210t-21.5 188.5t-69.5 152.5t-123 102t-177 37h-158l-147 -658h233l-8 -37h-234z" />
    <glyph glyph-name="Ntilde" unicode="&#xd1;" horiz-adv-x="1384" 
d="M-127 0v27q95 0 166 68t102 214l172 815q30 145 -14 214t-139 69v27h319l654 -1080l163 770q30 145 -18 214t-148 69v27h478v-27q-94 0 -165 -68.5t-102 -214.5l-237 -1124h-35l-707 1137l-176 -828q-32 -145 25 -213.5t172 -68.5v-27h-510zM567 1526q27 102 89 168
t153 65q37 -1 70.5 -19t55 -39t55 -38.5t71.5 -17.5q89 -2 141 108l27 -2q-25 -99 -82.5 -164.5t-149.5 -64.5q-38 1 -74 19t-59.5 39.5t-55.5 39.5t-65 18q-52 1 -90.5 -34t-56.5 -80z" />
    <glyph glyph-name="Ograve" unicode="&#xd2;" horiz-adv-x="1531" 
d="M659 -23q-111 -1 -210 38t-170.5 108.5t-119 166t-56.5 211.5t18 244q30 130 91.5 244t143 197.5t179 144.5t202 92t209.5 33q115 3 216 -34.5t173.5 -107t120.5 -166.5t57 -212.5t-16 -245.5q-36 -162 -121.5 -297.5t-199 -225.5t-247.5 -139.5t-270 -50.5zM350 688
q-16 -111 -14 -211.5t29.5 -186.5t71 -148t111 -95.5t150.5 -28.5q127 8 245 103t204.5 259t118.5 363q17 117 16 222t-28 192t-72.5 148t-117 90.5t-161.5 19.5q-124 -13 -239.5 -110t-199.5 -260t-114 -357zM662 1802l276 -2l121 -266l-27 -14z" />
    <glyph glyph-name="Oacute" unicode="&#xd3;" horiz-adv-x="1531" 
d="M659 -23q-111 -1 -210 38t-170.5 108.5t-119 166t-56.5 211.5t18 244q30 130 91.5 244t143 197.5t179 144.5t202 92t209.5 33q115 3 216 -34.5t173.5 -107t120.5 -166.5t57 -212.5t-16 -245.5q-36 -162 -121.5 -297.5t-199 -225.5t-247.5 -139.5t-270 -50.5zM350 688
q-16 -111 -14 -211.5t29.5 -186.5t71 -148t111 -95.5t150.5 -28.5q127 8 245 103t204.5 259t118.5 363q17 117 16 222t-28 192t-72.5 148t-117 90.5t-161.5 19.5q-124 -13 -239.5 -110t-199.5 -260t-114 -357zM981 1534l123 266l272 2l-368 -282z" />
    <glyph glyph-name="Ocircumflex" unicode="&#xd4;" horiz-adv-x="1531" 
d="M659 -23q-111 -1 -210 38t-170.5 108.5t-119 166t-56.5 211.5t18 244q30 130 91.5 244t143 197.5t179 144.5t202 92t209.5 33q115 3 216 -34.5t173.5 -107t120.5 -166.5t57 -212.5t-16 -245.5q-36 -162 -121.5 -297.5t-199 -225.5t-247.5 -139.5t-270 -50.5zM350 688
q-16 -111 -14 -211.5t29.5 -186.5t71 -148t111 -95.5t150.5 -28.5q127 8 245 103t204.5 259t118.5 363q17 117 16 222t-28 192t-72.5 148t-117 90.5t-161.5 19.5q-124 -13 -239.5 -110t-199.5 -260t-114 -357zM672 1524l364 270h41l250 -270l-24 -21l-281 123l-332 -123z
" />
    <glyph glyph-name="Otilde" unicode="&#xd5;" horiz-adv-x="1531" 
d="M659 -23q-111 -1 -210 38t-170.5 108.5t-119 166t-56.5 211.5t18 244q30 130 91.5 244t143 197.5t179 144.5t202 92t209.5 33q115 3 216 -34.5t173.5 -107t120.5 -166.5t57 -212.5t-16 -245.5q-36 -162 -121.5 -297.5t-199 -225.5t-247.5 -139.5t-270 -50.5zM350 688
q-16 -111 -14 -211.5t29.5 -186.5t71 -148t111 -95.5t150.5 -28.5q127 8 245 103t204.5 259t118.5 363q17 117 16 222t-28 192t-72.5 148t-117 90.5t-161.5 19.5q-124 -13 -239.5 -110t-199.5 -260t-114 -357zM696 1526q27 102 89 168t153 65q37 -1 70.5 -19t55 -39
t55 -38.5t71.5 -17.5q89 -2 141 108l27 -2q-25 -99 -82.5 -164.5t-149.5 -64.5q-38 1 -74 19t-59.5 39.5t-55.5 39.5t-65 18q-52 1 -90.5 -34t-56.5 -80z" />
    <glyph glyph-name="Odieresis" unicode="&#xd6;" horiz-adv-x="1531" 
d="M659 -23q-111 -1 -210 38t-170.5 108.5t-119 166t-56.5 211.5t18 244q30 130 91.5 244t143 197.5t179 144.5t202 92t209.5 33q115 3 216 -34.5t173.5 -107t120.5 -166.5t57 -212.5t-16 -245.5q-36 -162 -121.5 -297.5t-199 -225.5t-247.5 -139.5t-270 -50.5zM350 688
q-16 -111 -14 -211.5t29.5 -186.5t71 -148t111 -95.5t150.5 -28.5q127 8 245 103t204.5 259t118.5 363q17 117 16 222t-28 192t-72.5 148t-117 90.5t-161.5 19.5q-124 -13 -239.5 -110t-199.5 -260t-114 -357zM713 1694q9 58 49.5 94.5t99.5 36.5q57 0 89 -37t24 -94
q-8 -59 -50 -98.5t-100 -39.5q-57 0 -87.5 39t-24.5 99zM1098 1694q9 57 50.5 94t98.5 37q59 0 90 -36.5t23 -94.5q-8 -59 -49.5 -98.5t-100.5 -39.5q-57 0 -88.5 39.5t-23.5 98.5z" />
    <glyph glyph-name="multiply" unicode="&#xd7;" horiz-adv-x="1095" 
d="M797 356l-256 324l-391 -322l-21 27l389 322l-254 321l35 29l254 -322l391 324l23 -29l-394 -323l256 -324z" />
    <glyph glyph-name="Oslash" unicode="&#xd8;" horiz-adv-x="1536" 
d="M39 -16l-23 24l203 182q-81 108 -107.5 247.5t9.5 307.5q30 130 91.5 244t143 197.5t179 144.5t202 92t209.5 33q138 3 253.5 -50.5t191.5 -152.5l213 193l24 -25l-217 -196q72 -105 95 -240.5t-9 -294.5q-36 -162 -121.5 -297.5t-199 -225.5t-247.5 -139.5t-270 -50.5
q-128 0 -235.5 49.5t-183.5 139.5zM350 688q-34 -201 8 -371l902 818q-35 145 -126 221t-231 59q-124 -13 -239.5 -110t-199.5 -260t-114 -357zM369 283q40 -129 124 -200.5t205 -64.5q127 8 245 103t204.5 259t118.5 363q31 203 2 353z" />
    <glyph glyph-name="Ugrave" unicode="&#xd9;" horiz-adv-x="1400" 
d="M602 -18q-116 0 -207 40t-150 119t-76 196.5t15 272.5l131 619q37 178 -116 178v27h520v-27q-67 0 -108.5 -39.5t-63.5 -138.5l-117 -549q-27 -118 -19.5 -218t41.5 -172.5t102 -113.5t163 -41q177 0 296.5 136t172.5 388l100 465q30 145 -18 214t-148 69v27h465v-27
q-89 0 -157.5 -68.5t-100.5 -214.5l-102 -483q-34 -164 -98.5 -292t-148 -207t-179 -119.5t-197.5 -40.5zM618 1802l277 -2l121 -266l-27 -14z" />
    <glyph glyph-name="Uacute" unicode="&#xda;" horiz-adv-x="1400" 
d="M602 -18q-116 0 -207 40t-150 119t-76 196.5t15 272.5l131 619q37 178 -116 178v27h520v-27q-67 0 -108.5 -39.5t-63.5 -138.5l-117 -549q-27 -118 -19.5 -218t41.5 -172.5t102 -113.5t163 -41q177 0 296.5 136t172.5 388l100 465q30 145 -18 214t-148 69v27h465v-27
q-89 0 -157.5 -68.5t-100.5 -214.5l-102 -483q-34 -164 -98.5 -292t-148 -207t-179 -119.5t-197.5 -40.5zM938 1534l123 266l272 2l-368 -282z" />
    <glyph glyph-name="Ucircumflex" unicode="&#xdb;" horiz-adv-x="1400" 
d="M602 -18q-116 0 -207 40t-150 119t-76 196.5t15 272.5l131 619q37 178 -116 178v27h520v-27q-67 0 -108.5 -39.5t-63.5 -138.5l-117 -549q-27 -118 -19.5 -218t41.5 -172.5t102 -113.5t163 -41q177 0 296.5 136t172.5 388l100 465q30 145 -18 214t-148 69v27h465v-27
q-89 0 -157.5 -68.5t-100.5 -214.5l-102 -483q-34 -164 -98.5 -292t-148 -207t-179 -119.5t-197.5 -40.5zM631 1524l364 270h41l250 -270l-24 -21l-281 123l-332 -123z" />
    <glyph glyph-name="Udieresis" unicode="&#xdc;" horiz-adv-x="1400" 
d="M602 -18q-116 0 -207 40t-150 119t-76 196.5t15 272.5l131 619q37 178 -116 178v27h520v-27q-67 0 -108.5 -39.5t-63.5 -138.5l-117 -549q-27 -118 -19.5 -218t41.5 -172.5t102 -113.5t163 -41q177 0 296.5 136t172.5 388l100 465q30 145 -18 214t-148 69v27h465v-27
q-89 0 -157.5 -68.5t-100.5 -214.5l-102 -483q-34 -164 -98.5 -292t-148 -207t-179 -119.5t-197.5 -40.5zM672 1694q9 58 49.5 94.5t99.5 36.5q57 0 89 -37t24 -94q-8 -59 -50 -98.5t-100 -39.5q-57 0 -87.5 39t-24.5 99zM1057 1694q9 57 50.5 94t98.5 37q59 0 90 -36.5
t23 -94.5q-8 -59 -49.5 -98.5t-100.5 -39.5q-57 0 -88.5 39.5t-23.5 98.5z" />
    <glyph glyph-name="Yacute" unicode="&#xdd;" horiz-adv-x="1294" 
d="M358 1231q-27 99 -65 137.5t-98 38.5v27h532v-27q-155 0 -113 -176l144 -604l364 538q42 62 55 110t-2.5 76t-49 42t-83.5 14v27h433v-27q-134 0 -297 -242l-410 -598l-76 -362q-37 -178 117 -178v-27h-520v27q67 0 109 39.5t63 138.5l74 344zM899 1534l123 266l272 2
l-368 -282z" />
    <glyph glyph-name="Thorn" unicode="&#xde;" horiz-adv-x="1234" 
d="M-61 0v27q67 0 108.5 39.5t63.5 138.5l217 1024q37 178 -117 178v27h514v-27q-67 0 -108.5 -39.5t-63.5 -138.5l-23 -105h234q85 0 155 -18t115.5 -48.5t79 -72t46.5 -89t16.5 -97.5t-9.5 -99q-16 -76 -59 -144t-112 -124.5t-174 -89.5t-232 -33h-232l-22 -104
q-37 -178 117 -178v-27h-514zM365 344h180q101 0 184.5 53t133 134t67.5 176q9 56 10.5 110.5t-14 104t-42.5 87t-74.5 59.5t-109.5 22h-176z" />
    <glyph glyph-name="germandbls" unicode="&#xdf;" horiz-adv-x="1275" 
d="M-283 -383q124 7 207.5 126t126.5 325l189 888h-152l6 29q79 8 128 41.5t85 118.5q78 177 226.5 293t332.5 116q173 0 268 -105.5t64 -246.5q-21 -92 -83.5 -160.5t-143 -103.5t-176.5 -47q89 -10 168 -53t135.5 -110.5t80 -164t1.5 -203.5q-20 -96 -71 -170.5
t-117.5 -117.5t-137 -64.5t-139.5 -21.5q-129 0 -209.5 73t-77.5 183q2 59 35 98t82 39q47 0 76.5 -34t29.5 -79q0 -38 -25.5 -82.5t-29.5 -60.5q-4 -49 28.5 -80t84.5 -29q74 3 147 78.5t98 196.5q24 118 1 213t-81.5 162.5t-139.5 105.5t-171 43l6 31q150 14 264 99
t148 231q16 60 12.5 122.5t-19 113.5t-55 83t-94.5 31q-79 -1 -148.5 -67.5t-119.5 -178t-80 -256.5l-188 -885q-28 -134 -85.5 -238.5t-134.5 -169.5t-166.5 -100t-187.5 -39z" />
    <glyph glyph-name="agrave" unicode="&#xe0;" horiz-adv-x="1107" 
d="M272 -20q-70 0 -122 39t-77 104t-30.5 151t16.5 181q55 257 231.5 428.5t383.5 171.5q117 0 209 -82l155 104l21 -16l-150 -688q-6 -29 -18 -81q-29 -130 -24 -158q3 -22 22 -23q36 -5 88 78.5t92 238.5l21 -6q-30 -123 -71.5 -213.5t-87.5 -139t-92 -68t-91 -11.5
q-34 7 -54.5 27t-29 48.5t-7 72.5t9.5 90t23 110l31 121q-53 -128 -122.5 -233t-157 -175.5t-169.5 -70.5zM303 573q-35 -113 -45 -205t3.5 -148.5t42.5 -87t71 -30.5q65 0 147 87.5t151 230.5t99 293q27 141 0.5 224t-100.5 83q-43 0 -92 -29t-98.5 -82.5t-97 -141
t-81.5 -194.5zM422 1509l252 -2l155 -340l-26 -12z" />
    <glyph glyph-name="aacute" unicode="&#xe1;" horiz-adv-x="1107" 
d="M272 -20q-70 0 -122 39t-77 104t-30.5 151t16.5 181q55 257 231.5 428.5t383.5 171.5q117 0 209 -82l155 104l21 -16l-150 -688q-6 -29 -18 -81q-29 -130 -24 -158q3 -22 22 -23q36 -5 88 78.5t92 238.5l21 -6q-30 -123 -71.5 -213.5t-87.5 -139t-92 -68t-91 -11.5
q-34 7 -54.5 27t-29 48.5t-7 72.5t9.5 90t23 110l31 121q-53 -128 -122.5 -233t-157 -175.5t-169.5 -70.5zM303 573q-35 -113 -45 -205t3.5 -148.5t42.5 -87t71 -30.5q65 0 147 87.5t151 230.5t99 293q27 141 0.5 224t-100.5 83q-43 0 -92 -29t-98.5 -82.5t-97 -141
t-81.5 -194.5zM668 1167l192 340l252 2l-420 -354z" />
    <glyph glyph-name="acircumflex" unicode="&#xe2;" horiz-adv-x="1107" 
d="M272 -20q-70 0 -122 39t-77 104t-30.5 151t16.5 181q55 257 231.5 428.5t383.5 171.5q117 0 209 -82l155 104l21 -16l-150 -688q-6 -29 -18 -81q-29 -130 -24 -158q3 -22 22 -23q36 -5 88 78.5t92 238.5l21 -6q-30 -123 -71.5 -213.5t-87.5 -139t-92 -68t-91 -11.5
q-34 7 -54.5 27t-29 48.5t-7 72.5t9.5 90t23 110l31 121q-53 -128 -122.5 -233t-157 -175.5t-169.5 -70.5zM303 573q-35 -113 -45 -205t3.5 -148.5t42.5 -87t71 -30.5q65 0 147 87.5t151 230.5t99 293q27 141 0.5 224t-100.5 83q-43 0 -92 -29t-98.5 -82.5t-97 -141
t-81.5 -194.5zM408 1157l366 330h41l225 -330l-28 -20l-254 180l-334 -180z" />
    <glyph glyph-name="atilde" unicode="&#xe3;" horiz-adv-x="1107" 
d="M272 -20q-70 0 -122 39t-77 104t-30.5 151t16.5 181q55 257 231.5 428.5t383.5 171.5q117 0 209 -82l155 104l21 -16l-150 -688q-6 -29 -18 -81q-29 -130 -24 -158q3 -22 22 -23q36 -5 88 78.5t92 238.5l21 -6q-30 -123 -71.5 -213.5t-87.5 -139t-92 -68t-91 -11.5
q-34 7 -54.5 27t-29 48.5t-7 72.5t9.5 90t23 110l31 121q-53 -128 -122.5 -233t-157 -175.5t-169.5 -70.5zM303 573q-35 -113 -45 -205t3.5 -148.5t42.5 -87t71 -30.5q65 0 147 87.5t151 230.5t99 293q27 141 0.5 224t-100.5 83q-43 0 -92 -29t-98.5 -82.5t-97 -141
t-81.5 -194.5zM424 1202q27 103 89 169t153 65q37 -1 70.5 -19t55 -39.5t55 -39t71.5 -17.5q89 -2 141 109l26 -3q-25 -99 -82 -164.5t-149 -64.5q-38 1 -74 19.5t-59.5 40t-55.5 39.5t-65 18q-52 1 -90.5 -34.5t-56.5 -80.5z" />
    <glyph glyph-name="adieresis" unicode="&#xe4;" horiz-adv-x="1107" 
d="M272 -20q-70 0 -122 39t-77 104t-30.5 151t16.5 181q55 257 231.5 428.5t383.5 171.5q117 0 209 -82l155 104l21 -16l-150 -688q-6 -29 -18 -81q-29 -130 -24 -158q3 -22 22 -23q36 -5 88 78.5t92 238.5l21 -6q-30 -123 -71.5 -213.5t-87.5 -139t-92 -68t-91 -11.5
q-34 7 -54.5 27t-29 48.5t-7 72.5t9.5 90t23 110l31 121q-53 -128 -122.5 -233t-157 -175.5t-169.5 -70.5zM303 573q-35 -113 -45 -205t3.5 -148.5t42.5 -87t71 -30.5q65 0 147 87.5t151 230.5t99 293q27 141 0.5 224t-100.5 83q-43 0 -92 -29t-98.5 -82.5t-97 -141
t-81.5 -194.5zM440 1360q9 58 50 94.5t100 36.5q57 0 88.5 -37t23.5 -94q-8 -59 -49.5 -98t-99.5 -39t-88.5 38.5t-24.5 98.5zM825 1360q9 57 51 94t99 37q59 0 89.5 -36.5t22.5 -94.5q-8 -59 -49 -98t-100 -39q-57 0 -89 39t-24 98z" />
    <glyph glyph-name="aring" unicode="&#xe5;" horiz-adv-x="1107" 
d="M272 -20q-70 0 -122 39t-77 104t-30.5 151t16.5 181q55 257 231.5 428.5t383.5 171.5q117 0 209 -82l155 104l21 -16l-150 -688q-6 -29 -18 -81q-29 -130 -24 -158q3 -22 22 -23q36 -5 88 78.5t92 238.5l21 -6q-30 -123 -71.5 -213.5t-87.5 -139t-92 -68t-91 -11.5
q-34 7 -54.5 27t-29 48.5t-7 72.5t9.5 90t23 110l31 121q-53 -128 -122.5 -233t-157 -175.5t-169.5 -70.5zM303 573q-35 -113 -45 -205t3.5 -148.5t42.5 -87t71 -30.5q65 0 147 87.5t151 230.5t99 293q27 141 0.5 224t-100.5 83q-43 0 -92 -29t-98.5 -82.5t-97 -141
t-81.5 -194.5zM584 1352q7 75 66 127.5t134 52.5t122 -52.5t38 -127.5q-9 -76 -67.5 -128.5t-133.5 -52.5t-121.5 52.5t-37.5 128.5zM627 1352q-6 -56 30 -95.5t93 -39.5q55 0 99 39.5t50 95.5t-29 95.5t-90 39.5q-57 0 -101 -39.5t-52 -95.5z" />
    <glyph glyph-name="ae" unicode="&#xe6;" horiz-adv-x="1599" 
d="M272 -20q-70 0 -122 39t-77 104t-30.5 151t16.5 181q55 257 231.5 428.5t383.5 171.5q94 0 190 -60l117 82l20 -16l-28 -133q160 131 346 131q104 0 168 -49t61 -131q-3 -94 -89 -173t-222.5 -125t-292.5 -53q-26 -194 39.5 -308t198.5 -114q120 0 220.5 112.5
t149.5 307.5l23 -6q-51 -234 -195 -386t-317 -152q-174 0 -271 132.5t-71 344.5v4q-92 -214 -212 -348.5t-237 -134.5zM303 573q-35 -113 -45 -205t3.5 -148.5t42.5 -87t71 -30.5q65 0 147 87.5t151 230.5t99 293q27 141 0.5 224t-100.5 83q-43 0 -92 -29t-98.5 -82.5
t-97 -141t-81.5 -194.5zM946 549q88 9 162 38.5t122.5 69.5t82.5 88t48 94t13 87q-3 46 -28 73t-66 27q-107 0 -205 -138.5t-127 -330.5q0 -4 -2 -8z" />
    <glyph glyph-name="ccedilla" unicode="&#xe7;" horiz-adv-x="942" 
d="M412 -18q-177 2 -279 133.5t-78 339.5q18 162 104 300t217 219t275 81q113 0 180.5 -56t73.5 -143q4 -64 -25 -101t-73 -44q-51 -6 -85.5 21.5t-39.5 74.5q-4 37 22.5 86t22.5 74q-4 31 -27.5 45.5t-58.5 11.5q-115 -5 -222 -146t-136 -331q-32 -197 36 -319t203 -122
q124 0 227 110.5t148 307.5l21 -4q-43 -211 -163.5 -355t-269.5 -175l-112 -70q98 3 146 -50.5t28 -123.5q-19 -71 -86 -116.5t-142 -53.5q-75 -9 -129 13.5t-67 74.5q-9 37 6 64t45 36q28 8 53.5 -5t32.5 -40q6 -26 -3 -56t-7 -40q6 -32 43 -26q48 6 90.5 63t36.5 113
q-8 63 -67 79.5t-134 -24.5l-8 22l217 132h-16z" />
    <glyph glyph-name="egrave" unicode="&#xe8;" horiz-adv-x="935" 
d="M399 -18q-174 0 -271 132.5t-71 344.5q14 123 69 235t135.5 191.5t183.5 126.5t210 47q104 0 168.5 -49t61.5 -131q-3 -94 -89 -173t-222.5 -125t-292.5 -53q-26 -194 39 -308t198 -114q120 0 221 113t150 307l22 -6q-51 -234 -195 -386t-317 -152zM283 549
q88 9 162 38.5t122.5 69.5t82.5 88t48 94t13 87q-3 46 -28.5 73t-66.5 27q-107 0 -204.5 -138.5t-126.5 -330.5q0 -4 -2 -8zM344 1511l252 -2l156 -340l-27 -12z" />
    <glyph glyph-name="eacute" unicode="&#xe9;" horiz-adv-x="935" 
d="M399 -18q-174 0 -271 132.5t-71 344.5q14 123 69 235t135.5 191.5t183.5 126.5t210 47q104 0 168.5 -49t61.5 -131q-3 -94 -89 -173t-222.5 -125t-292.5 -53q-26 -194 39 -308t198 -114q120 0 221 113t150 307l22 -6q-51 -234 -195 -386t-317 -152zM283 549
q88 9 162 38.5t122.5 69.5t82.5 88t48 94t13 87q-3 46 -28.5 73t-66.5 27q-107 0 -204.5 -138.5t-126.5 -330.5q0 -4 -2 -8zM590 1169l192 340l252 2l-420 -354z" />
    <glyph glyph-name="ecircumflex" unicode="&#xea;" horiz-adv-x="935" 
d="M399 -18q-174 0 -271 132.5t-71 344.5q14 123 69 235t135.5 191.5t183.5 126.5t210 47q104 0 168.5 -49t61.5 -131q-3 -94 -89 -173t-222.5 -125t-292.5 -53q-26 -194 39 -308t198 -114q120 0 221 113t150 307l22 -6q-51 -234 -195 -386t-317 -152zM283 549
q88 9 162 38.5t122.5 69.5t82.5 88t48 94t13 87q-3 46 -28.5 73t-66.5 27q-107 0 -204.5 -138.5t-126.5 -330.5q0 -4 -2 -8zM328 1159l366 330h41l226 -330l-29 -20l-254 180l-334 -180z" />
    <glyph glyph-name="edieresis" unicode="&#xeb;" horiz-adv-x="935" 
d="M399 -18q-174 0 -271 132.5t-71 344.5q14 123 69 235t135.5 191.5t183.5 126.5t210 47q104 0 168.5 -49t61.5 -131q-3 -94 -89 -173t-222.5 -125t-292.5 -53q-26 -194 39 -308t198 -114q120 0 221 113t150 307l22 -6q-51 -234 -195 -386t-317 -152zM283 549
q88 9 162 38.5t122.5 69.5t82.5 88t48 94t13 87q-3 46 -28.5 73t-66.5 27q-107 0 -204.5 -138.5t-126.5 -330.5q0 -4 -2 -8zM362 1362q9 58 50 94.5t100 36.5q57 0 89 -37t24 -94q-8 -59 -50 -98t-100 -39t-88.5 38.5t-24.5 98.5zM748 1362q9 57 50.5 94t98.5 37
q59 0 90 -36.5t23 -94.5q-8 -59 -49.5 -98t-100.5 -39q-57 0 -88.5 39t-23.5 98z" />
    <glyph glyph-name="igrave" unicode="&#xec;" horiz-adv-x="518" 
d="M188 772q20 89 -2.5 123.5t-91.5 36.5v26q107 7 187.5 27.5t167.5 75.5l18 -14l-41 -185l-102 -489q-7 -31 -19 -85q-29 -128 -24 -155q4 -21 22 -22q37 -5 88.5 78t91.5 239l19 -4q-29 -124 -70.5 -215t-87 -139.5t-91.5 -67.5t-91 -10q-42 7 -65 33.5t-27.5 74.5
t2 103.5t24.5 136.5zM61 1509l252 -2l156 -340l-27 -12z" />
    <glyph glyph-name="iacute" unicode="&#xed;" horiz-adv-x="518" 
d="M188 772q20 89 -2.5 123.5t-91.5 36.5v26q107 7 187.5 27.5t167.5 75.5l18 -14l-41 -185l-102 -489q-7 -31 -19 -85q-29 -128 -24 -155q4 -21 22 -22q37 -5 88.5 78t91.5 239l19 -4q-29 -124 -70.5 -215t-87 -139.5t-91.5 -67.5t-91 -10q-42 7 -65 33.5t-27.5 74.5
t2 103.5t24.5 136.5zM307 1167l193 340l252 2l-420 -354z" />
    <glyph glyph-name="icircumflex" unicode="&#xee;" horiz-adv-x="518" 
d="M188 772q20 89 -2.5 123.5t-91.5 36.5v26q107 7 187.5 27.5t167.5 75.5l18 -14l-41 -185l-102 -489q-7 -31 -19 -85q-29 -128 -24 -155q4 -21 22 -22q37 -5 88.5 78t91.5 239l19 -4q-29 -124 -70.5 -215t-87 -139.5t-91.5 -67.5t-91 -10q-42 7 -65 33.5t-27.5 74.5
t2 103.5t24.5 136.5zM45 1157l367 330h41l225 -330l-29 -20l-254 180l-334 -180z" />
    <glyph glyph-name="idieresis" unicode="&#xef;" horiz-adv-x="518" 
d="M535 1210q-57 0 -89 39.5t-24 98.5q9 57 50.5 94t98.5 37q59 0 90 -36.5t23 -94.5q-8 -60 -49 -99t-100 -39zM94 932v26q107 7 187.5 27.5t167.5 75.5l18 -14l-41 -185l-102 -489q-7 -31 -19 -85q-29 -128 -24 -155q4 -21 22 -22q37 -5 88.5 78t91.5 239l19 -4
q-29 -124 -70.5 -215t-87 -139.5t-91.5 -67.5t-91 -10q-42 7 -65 33.5t-27.5 74.5t2 103.5t24.5 136.5l92 432q20 89 -2.5 123.5t-91.5 36.5zM104 1348q8 57 49 94t99 37q57 0 89.5 -37t25.5 -94q-9 -59 -51.5 -98.5t-100.5 -39.5t-88.5 39t-22.5 99z" />
    <glyph glyph-name="eth" unicode="&#xf0;" horiz-adv-x="1079" 
d="M426 -14q-96 0 -175 39t-128.5 110t-66.5 171t10 222q32 145 122 257.5t209.5 170.5t247.5 56q119 0 191 -101q17 221 -56 387l-207 -120l-10 24l205 121q-40 85 -96 133t-113 51q-38 3 -50.5 -15.5t-10.5 -64.5q-2 -54 -28.5 -96t-84.5 -45q-55 -3 -89 30.5t-32 82.5
q1 71 61.5 115.5t153.5 44.5q111 0 210 -46.5t173 -132.5l217 127l13 -26l-211 -123q107 -131 148 -322t1 -409q-29 -157 -89 -280t-140.5 -201.5t-175.5 -119t-199 -40.5zM293 516q-28 -147 -20 -257t54 -173t122 -59q106 5 194 137.5t129 359.5q38 206 -5.5 331.5
t-143.5 125.5q-111 -1 -200 -131t-130 -334z" />
    <glyph glyph-name="ntilde" unicode="&#xf1;" horiz-adv-x="1136" 
d="M25 0l163 772q20 87 -3 122.5t-91 35.5v26q105 7 186 28.5t169 76.5l16 -14l-39 -185l-109 -506q110 326 259 514.5t305 188.5q117 0 156 -93.5t-11 -279.5l-90 -328q-8 -30 -24 -82q-15 -52 -21.5 -75.5t-11 -51.5t0.5 -38.5t19 -12.5q36 -7 93.5 74t107.5 234l18 -7
q-37 -122 -83.5 -210t-95 -133.5t-95.5 -62t-92 -5.5q-41 11 -62 38.5t-22.5 75.5t8.5 102.5t33 135.5l84 295q20 69 28.5 122.5t6 86t-13.5 53.5t-26.5 29t-35.5 8q-72 0 -163.5 -113.5t-185.5 -330.5t-161 -490h-217zM395 1202q27 103 89 169t153 65q37 -1 70.5 -19
t55 -39.5t55 -39t71.5 -17.5q89 -2 141 109l27 -3q-25 -99 -82.5 -164.5t-149.5 -64.5q-38 1 -74 19.5t-59.5 40t-55.5 39.5t-65 18q-52 1 -90.5 -34.5t-56.5 -80.5z" />
    <glyph glyph-name="ograve" unicode="&#xf2;" horiz-adv-x="1060" 
d="M414 -18q-126 0 -218.5 74t-126 200.5t0.5 294.5q28 118 89.5 216.5t141.5 161.5t171.5 97.5t182.5 34.5q123 0 214 -72t125 -197t-1 -292q-27 -120 -88 -219.5t-140.5 -164t-170 -99.5t-180.5 -35zM297 512q-45 -244 -6.5 -372.5t145.5 -125.5q98 3 188 141t140 377
q46 241 11 370t-140 126q-103 -3 -197.5 -143.5t-140.5 -372.5zM377 1509l252 -2l155 -340l-26 -12z" />
    <glyph glyph-name="oacute" unicode="&#xf3;" horiz-adv-x="1060" 
d="M414 -18q-126 0 -218.5 74t-126 200.5t0.5 294.5q28 118 89.5 216.5t141.5 161.5t171.5 97.5t182.5 34.5q123 0 214 -72t125 -197t-1 -292q-27 -120 -88 -219.5t-140.5 -164t-170 -99.5t-180.5 -35zM297 512q-45 -244 -6.5 -372.5t145.5 -125.5q98 3 188 141t140 377
q46 241 11 370t-140 126q-103 -3 -197.5 -143.5t-140.5 -372.5zM623 1167l192 340l252 2l-420 -354z" />
    <glyph glyph-name="ocircumflex" unicode="&#xf4;" horiz-adv-x="1060" 
d="M414 -18q-126 0 -218.5 74t-126 200.5t0.5 294.5q28 118 89.5 216.5t141.5 161.5t171.5 97.5t182.5 34.5q123 0 214 -72t125 -197t-1 -292q-27 -120 -88 -219.5t-140.5 -164t-170 -99.5t-180.5 -35zM297 512q-45 -244 -6.5 -372.5t145.5 -125.5q98 3 188 141t140 377
q46 241 11 370t-140 126q-103 -3 -197.5 -143.5t-140.5 -372.5zM360 1157l367 330h41l225 -330l-28 -20l-254 180l-334 -180z" />
    <glyph glyph-name="otilde" unicode="&#xf5;" horiz-adv-x="1060" 
d="M414 -18q-126 0 -218.5 74t-126 200.5t0.5 294.5q28 118 89.5 216.5t141.5 161.5t171.5 97.5t182.5 34.5q123 0 214 -72t125 -197t-1 -292q-27 -120 -88 -219.5t-140.5 -164t-170 -99.5t-180.5 -35zM297 512q-45 -244 -6.5 -372.5t145.5 -125.5q98 3 188 141t140 377
q46 241 11 370t-140 126q-103 -3 -197.5 -143.5t-140.5 -372.5zM379 1202q27 103 89 169t153 65q30 -1 57 -13t47.5 -28.5t41 -33.5t47.5 -28.5t58 -11.5q90 -2 142 109l26 -3q-25 -99 -82 -164.5t-149 -64.5q-38 1 -74 19.5t-59.5 40t-55.5 39.5t-65 18q-52 1 -90.5 -34.5
t-56.5 -80.5z" />
    <glyph glyph-name="odieresis" unicode="&#xf6;" horiz-adv-x="1060" 
d="M414 -18q-126 0 -218.5 74t-126 200.5t0.5 294.5q28 118 89.5 216.5t141.5 161.5t171.5 97.5t182.5 34.5q123 0 214 -72t125 -197t-1 -292q-27 -120 -88 -219.5t-140.5 -164t-170 -99.5t-180.5 -35zM297 512q-45 -244 -6.5 -372.5t145.5 -125.5q98 3 188 141t140 377
q46 241 11 370t-140 126q-103 -3 -197.5 -143.5t-140.5 -372.5zM395 1360q9 58 50 94.5t100 36.5q57 0 88.5 -37t23.5 -94q-8 -59 -49.5 -98t-99.5 -39t-88.5 38.5t-24.5 98.5zM780 1360q9 57 51 94t99 37q59 0 89.5 -36.5t22.5 -94.5q-8 -59 -49 -98t-100 -39q-57 0 -89 39
t-24 98z" />
    <glyph glyph-name="divide" unicode="&#xf7;" horiz-adv-x="1265" 
d="M193 690l6 37h872l-6 -37h-872zM455 420q9 48 49 81.5t90 33.5t75.5 -33.5t16.5 -81.5q-11 -52 -50 -85.5t-91 -33.5q-51 0 -76 34t-14 85zM580 1014q11 48 51 81t90 33t75.5 -33t14.5 -81q-11 -52 -50 -86.5t-89 -34.5q-51 0 -76 34.5t-16 86.5z" />
    <glyph glyph-name="oslash" unicode="&#xf8;" horiz-adv-x="1089" 
d="M0 -70l-25 23l170 174q-55 78 -71 185.5t12 238.5q28 118 90 216.5t142 161.5t171.5 97.5t182.5 34.5q159 0 262 -119l151 158l27 -23l-158 -162q53 -78 68 -181.5t-12 -233.5q-27 -120 -88 -219.5t-140.5 -164t-170.5 -99.5t-181 -35q-166 0 -264 118zM289 276l516 535
q-6 107 -45.5 163t-108.5 54q-103 -3 -197.5 -143.5t-140.5 -372.5q-24 -120 -24 -236zM291 229q9 -107 51 -162t111 -53q98 3 187.5 141t139.5 377q27 149 27 230z" />
    <glyph glyph-name="ugrave" unicode="&#xf9;" horiz-adv-x="1136" 
d="M233 -20q-236 0 -145 372l109 428q21 87 -1 122.5t-90 37.5l3 29q105 4 185.5 22t170.5 70l16 -14l-45 -183l-114 -461q-77 -299 38 -299q53 0 119 68t133 188.5t133 298.5t117 385h217l-139 -665q-38 -176 -39 -190q-9 -70 21 -72q36 -5 88 78.5t92 238.5l18 -4
q-29 -124 -70 -215t-86.5 -139.5t-91.5 -68t-92 -11.5q-34 7 -55 27t-30.5 48.5t-9 72.5t7.5 90.5t20 111.5l71 332q-109 -325 -253.5 -511.5t-297.5 -186.5zM416 1509l252 -2l155 -340l-26 -12z" />
    <glyph glyph-name="uacute" unicode="&#xfa;" horiz-adv-x="1136" 
d="M233 -20q-236 0 -145 372l109 428q21 87 -1 122.5t-90 37.5l3 29q105 4 185.5 22t170.5 70l16 -14l-45 -183l-114 -461q-77 -299 38 -299q53 0 119 68t133 188.5t133 298.5t117 385h217l-139 -665q-38 -176 -39 -190q-9 -70 21 -72q36 -5 88 78.5t92 238.5l18 -4
q-29 -124 -70 -215t-86.5 -139.5t-91.5 -68t-92 -11.5q-34 7 -55 27t-30.5 48.5t-9 72.5t7.5 90.5t20 111.5l71 332q-109 -325 -253.5 -511.5t-297.5 -186.5zM662 1167l192 340l252 2l-420 -354z" />
    <glyph glyph-name="ucircumflex" unicode="&#xfb;" horiz-adv-x="1136" 
d="M233 -20q-236 0 -145 372l109 428q21 87 -1 122.5t-90 37.5l3 29q105 4 185.5 22t170.5 70l16 -14l-45 -183l-114 -461q-77 -299 38 -299q53 0 119 68t133 188.5t133 298.5t117 385h217l-139 -665q-38 -176 -39 -190q-9 -70 21 -72q36 -5 88 78.5t92 238.5l18 -4
q-29 -124 -70 -215t-86.5 -139.5t-91.5 -68t-92 -11.5q-34 7 -55 27t-30.5 48.5t-9 72.5t7.5 90.5t20 111.5l71 332q-109 -325 -253.5 -511.5t-297.5 -186.5zM399 1157l367 330h41l225 -330l-28 -20l-254 180l-334 -180z" />
    <glyph glyph-name="udieresis" unicode="&#xfc;" horiz-adv-x="1136" 
d="M233 -20q-236 0 -145 372l109 428q21 87 -1 122.5t-90 37.5l3 29q105 4 185.5 22t170.5 70l16 -14l-45 -183l-114 -461q-77 -299 38 -299q53 0 119 68t133 188.5t133 298.5t117 385h217l-139 -665q-38 -176 -39 -190q-9 -70 21 -72q36 -5 88 78.5t92 238.5l18 -4
q-29 -124 -70 -215t-86.5 -139.5t-91.5 -68t-92 -11.5q-34 7 -55 27t-30.5 48.5t-9 72.5t7.5 90.5t20 111.5l71 332q-109 -325 -253.5 -511.5t-297.5 -186.5zM434 1360q9 58 50 94.5t100 36.5q57 0 88.5 -37t23.5 -94q-8 -59 -49.5 -98t-99.5 -39t-88.5 38.5t-24.5 98.5z
M819 1360q9 57 51 94t99 37q59 0 89.5 -36.5t22.5 -94.5q-8 -59 -49 -98t-100 -39q-57 0 -89 39t-24 98z" />
    <glyph glyph-name="yacute" unicode="&#xfd;" horiz-adv-x="1071" 
d="M352 -430q-107 0 -197 29t-144 73t-83.5 90.5t-29.5 85.5q0 34 16.5 59t41 39t63.5 23.5t71.5 13t77.5 5.5q-169 48 -72 420l101 376q22 89 1.5 124t-89.5 38l2 27q108 4 188.5 20.5t169.5 67.5l16 -14l-49 -183l-112 -432q-22 -78 -31.5 -136.5t-9 -94.5t10.5 -58
t24.5 -30.5t35.5 -8.5q53 0 119 68t133 188.5t133 298.5t117 385h217l-223 -1044q-43 -203 -183 -316.5t-315 -113.5zM100 -137q-3 -86 71.5 -173t174.5 -87q54 0 100.5 31.5t81 88t59.5 125t44 152.5l145 676q-107 -323 -252 -509.5t-297 -186.5h-4q-117 -19 -123 -117z
M641 1167l193 340l251 2l-419 -354z" />
    <glyph glyph-name="thorn" unicode="&#xfe;" horiz-adv-x="1097" 
d="M-199 -410v27q66 0 108 39.5t64 138.5l320 1456q20 89 -2.5 123.5t-91.5 36.5l2 27q106 7 186 27t168 75l16 -14l-41 -185l-176 -796q52 135 123 248t162.5 189.5t179.5 76.5q74 0 128.5 -39t81.5 -104t33.5 -151.5t-15.5 -180.5q-55 -256 -235 -428t-388 -172
q-115 0 -174 73l-57 -262q-37 -178 137 -178v-27h-529zM311 307q-58 -282 99 -282q45 0 95.5 27.5t101 80.5t98 139t81.5 193q37 113 47.5 205t-3 148.5t-43.5 87t-72 30.5q-67 0 -152.5 -96.5t-155 -243.5t-96.5 -289z" />
    <glyph glyph-name="ydieresis" unicode="&#xff;" horiz-adv-x="1071" 
d="M352 -430q-107 0 -197 29t-144 73t-83.5 90.5t-29.5 85.5q0 34 16.5 59t41 39t63.5 23.5t71.5 13t77.5 5.5q-169 48 -72 420l101 376q22 89 1.5 124t-89.5 38l2 27q108 4 188.5 20.5t169.5 67.5l16 -14l-49 -183l-112 -432q-22 -78 -31.5 -136.5t-9 -94.5t10.5 -58
t24.5 -30.5t35.5 -8.5q53 0 119 68t133 188.5t133 298.5t117 385h217l-223 -1044q-43 -203 -183 -316.5t-315 -113.5zM100 -137q-3 -86 71.5 -173t174.5 -87q54 0 100.5 31.5t81 88t59.5 125t44 152.5l145 676q-107 -323 -252 -509.5t-297 -186.5h-4q-117 -19 -123 -117z
M416 1360q9 58 49.5 94.5t99.5 36.5q57 0 89 -37t24 -94q-8 -59 -50 -98t-100 -39q-57 0 -87.5 38.5t-24.5 98.5zM801 1360q9 57 50.5 94t98.5 37q59 0 90 -36.5t23 -94.5q-8 -59 -49.5 -98t-100.5 -39q-57 0 -88.5 39t-23.5 98z" />
    <glyph glyph-name="Amacron" unicode="&#x100;" horiz-adv-x="1339" 
d="M-139 0v27q83 0 165.5 61.5t157.5 192.5l541 958q-26 102 -135 109v26q176 0 311 107l21 -11l190 -1265q14 -98 57 -138t113 -40v-27h-532v27q157 0 131 178l-35 237h-522l-66 -118q-60 -105 -52.5 -170t55.5 -94t132 -29v-31h-532zM344 477h498l-103 709zM543 1579
l22 107h584l-23 -107h-583z" />
    <glyph glyph-name="amacron" unicode="&#x101;" horiz-adv-x="1107" 
d="M272 -20q-70 0 -122 39t-77 104t-30.5 151t16.5 181q55 257 231.5 428.5t383.5 171.5q117 0 209 -82l155 104l21 -16l-150 -688q-6 -29 -18 -81q-29 -130 -24 -158q3 -22 22 -23q36 -5 88 78.5t92 238.5l21 -6q-30 -123 -71.5 -213.5t-87.5 -139t-92 -68t-91 -11.5
q-34 7 -54.5 27t-29 48.5t-7 72.5t9.5 90t23 110l31 121q-53 -128 -122.5 -233t-157 -175.5t-169.5 -70.5zM303 573q-35 -113 -45 -205t3.5 -148.5t42.5 -87t71 -30.5q65 0 147 87.5t151 230.5t99 293q27 141 0.5 224t-100.5 83q-43 0 -92 -29t-98.5 -82.5t-97 -141
t-81.5 -194.5zM453 1282l22 107h584l-23 -107h-583z" />
    <glyph glyph-name="Abreve" unicode="&#x102;" horiz-adv-x="1339" 
d="M-139 0v27q83 0 165.5 61.5t157.5 192.5l541 958q-26 102 -135 109v26q176 0 311 107l21 -11l190 -1265q14 -98 57 -138t113 -40v-27h-532v27q157 0 131 178l-35 237h-522l-66 -118q-60 -105 -52.5 -170t55.5 -94t132 -29v-31h-532zM344 477h498l-103 709zM659 1817l31 4
q0 -57 53 -103.5t152 -46.5q96 0 169.5 47t96.5 103l25 -4q-23 -108 -115.5 -191.5t-204.5 -83.5q-119 0 -175.5 79t-31.5 196z" />
    <glyph glyph-name="abreve" unicode="&#x103;" horiz-adv-x="1107" 
d="M272 -20q-70 0 -122 39t-77 104t-30.5 151t16.5 181q55 257 231.5 428.5t383.5 171.5q117 0 209 -82l155 104l21 -16l-150 -688q-6 -29 -18 -81q-29 -130 -24 -158q3 -22 22 -23q36 -5 88 78.5t92 238.5l21 -6q-30 -123 -71.5 -213.5t-87.5 -139t-92 -68t-91 -11.5
q-34 7 -54.5 27t-29 48.5t-7 72.5t9.5 90t23 110l31 121q-53 -128 -122.5 -233t-157 -175.5t-169.5 -70.5zM303 573q-35 -113 -45 -205t3.5 -148.5t42.5 -87t71 -30.5q65 0 147 87.5t151 230.5t99 293q27 141 0.5 224t-100.5 83q-43 0 -92 -29t-98.5 -82.5t-97 -141
t-81.5 -194.5zM535 1522l30 4q-5 -72 46.5 -122t152.5 -50q99 0 172.5 50t99.5 122l25 -4q-28 -136 -120.5 -225t-207.5 -89q-122 0 -175.5 84.5t-22.5 229.5z" />
    <glyph glyph-name="Aogonek" unicode="&#x104;" horiz-adv-x="1339" 
d="M-139 0v27q83 0 165.5 61.5t157.5 192.5l541 958q-26 102 -135 109v26q176 0 311 107l21 -11l190 -1265q14 -98 57 -138t113 -40v-27h-248q-132 -71 -153 -174q-14 -64 21.5 -98.5t84.5 -34.5q72 0 117 57l16 -6q-34 -76 -96.5 -121t-134.5 -45q-81 0 -127.5 53.5
t-28.5 135.5q15 73 80 135.5t154 97.5h-217v27q157 0 131 178l-35 237h-522l-66 -118q-60 -105 -52.5 -170t55.5 -94t132 -29v-31h-532zM344 477h498l-103 709z" />
    <glyph glyph-name="aogonek" unicode="&#x105;" horiz-adv-x="1107" 
d="M272 -20q-70 0 -122 39t-77 104t-30.5 151t16.5 181q55 257 231.5 428.5t383.5 171.5q117 0 209 -82l155 104l21 -16l-150 -688q-6 -29 -18 -81q-29 -130 -24 -158q3 -22 22 -23q36 -5 88 78.5t92 238.5l21 -6q-47 -191 -117 -296t-150 -130v-2q-137 -74 -157 -176
q-14 -64 21.5 -98.5t84.5 -34.5q72 0 117 57l16 -6q-34 -76 -96.5 -121t-134.5 -45q-81 0 -127.5 53t-28.5 135q15 73 78.5 135t151.5 97q-34 7 -54.5 27t-29 48.5t-7 72.5t9.5 90t23 110l31 121q-53 -128 -122.5 -233t-157 -175.5t-169.5 -70.5zM303 573q-35 -113 -45 -205
t3.5 -148.5t42.5 -87t71 -30.5q65 0 147 87.5t151 230.5t99 293q27 141 0.5 224t-100.5 83q-43 0 -92 -29t-98.5 -82.5t-97 -141t-81.5 -194.5z" />
    <glyph glyph-name="Cacute" unicode="&#x106;" horiz-adv-x="1415" 
d="M651 -23q-121 0 -222.5 41t-170.5 113.5t-112 172t-46.5 216t25.5 246.5q51 200 179 359t295.5 245t342.5 88q76 1 142.5 -16.5t103 -38.5t72 -38.5t57.5 -16.5q68 3 98 94l31 -2l-82 -545l-27 2q7 238 -98 381.5t-281 148.5q-136 2 -265 -79.5t-221.5 -224
t-125.5 -312.5q-39 -196 10 -353t170 -241.5t287 -77.5q164 9 301 114t221 275l23 -6q-62 -153 -163.5 -274t-244 -196t-299.5 -75zM965 1536l122 266l273 2l-369 -282z" />
    <glyph glyph-name="cacute" unicode="&#x107;" horiz-adv-x="942" 
d="M412 -18q-177 2 -279 133.5t-78 339.5q18 162 104 300t217 219t275 81q113 0 180.5 -56t73.5 -143q4 -64 -25 -101t-73 -44q-51 -6 -85.5 21.5t-39.5 74.5q-4 37 22.5 86t22.5 74q-4 31 -27.5 45.5t-58.5 11.5q-115 -5 -222 -146t-136 -331q-32 -197 36 -319t203 -122
q124 0 227 110.5t148 307.5l21 -4q-50 -239 -193.5 -388.5t-312.5 -149.5zM623 1174l192 339l252 3l-420 -355z" />
    <glyph glyph-name="Cdotaccent" unicode="&#x10a;" horiz-adv-x="1415" 
d="M651 -23q-121 0 -222.5 41t-170.5 113.5t-112 172t-46.5 216t25.5 246.5q51 200 179 359t295.5 245t342.5 88q76 1 142.5 -16.5t103 -38.5t72 -38.5t57.5 -16.5q68 3 98 94l31 -2l-82 -545l-27 2q7 238 -98 381.5t-281 148.5q-136 2 -265 -79.5t-221.5 -224
t-125.5 -312.5q-39 -196 10 -353t170 -241.5t287 -77.5q164 9 301 114t221 275l23 -6q-62 -153 -163.5 -274t-244 -196t-299.5 -75zM836 1673q5 59 45.5 98t101.5 39t97.5 -39t31.5 -98q-3 -63 -43.5 -103t-103.5 -40q-61 0 -96.5 40t-32.5 103z" />
    <glyph glyph-name="cdotaccent" unicode="&#x10b;" horiz-adv-x="942" 
d="M412 -18q-177 2 -279 133.5t-78 339.5q18 162 104 300t217 219t275 81q113 0 180.5 -56t73.5 -143q4 -64 -25 -101t-73 -44q-51 -6 -85.5 21.5t-39.5 74.5q-4 37 22.5 86t22.5 74q-4 31 -27.5 45.5t-58.5 11.5q-115 -5 -222 -146t-136 -331q-32 -197 36 -319t203 -122
q124 0 227 110.5t148 307.5l21 -4q-50 -239 -193.5 -388.5t-312.5 -149.5zM573 1368q5 59 46 98t102 39t97.5 -39t31.5 -98q-3 -63 -44 -103t-104 -40q-61 0 -96.5 40t-32.5 103z" />
    <glyph glyph-name="Ccaron" unicode="&#x10c;" horiz-adv-x="1415" 
d="M651 -23q-121 0 -222.5 41t-170.5 113.5t-112 172t-46.5 216t25.5 246.5q51 200 179 359t295.5 245t342.5 88q76 1 142.5 -16.5t103 -38.5t72 -38.5t57.5 -16.5q68 3 98 94l31 -2l-82 -545l-27 2q7 238 -98 381.5t-281 148.5q-136 2 -265 -79.5t-221.5 -224
t-125.5 -312.5q-39 -196 10 -353t170 -241.5t287 -77.5q164 9 301 114t221 275l23 -6q-62 -153 -163.5 -274t-244 -196t-299.5 -75zM715 1796l26 21l281 -123l332 123l16 -21l-364 -270h-41z" />
    <glyph glyph-name="ccaron" unicode="&#x10d;" horiz-adv-x="942" 
d="M412 -18q-177 2 -279 133.5t-78 339.5q18 162 104 300t217 219t275 81q113 0 180.5 -56t73.5 -143q4 -64 -25 -101t-73 -44q-51 -6 -85.5 21.5t-39.5 74.5q-4 37 22.5 86t22.5 74q-4 31 -27.5 45.5t-58.5 11.5q-115 -5 -222 -146t-136 -331q-32 -197 36 -319t203 -122
q124 0 227 110.5t148 307.5l21 -4q-50 -239 -193.5 -388.5t-312.5 -149.5zM430 1493l27 20l256 -178l331 178l19 -20l-367 -330h-41z" />
    <glyph glyph-name="Dcaron" unicode="&#x10e;" horiz-adv-x="1406" 
d="M-74 0v27q67 0 109.5 39t64.5 137l228 1028q40 176 -115 176v27h561q105 0 195 -20.5t157.5 -58.5t119.5 -90.5t84 -116.5t48 -137.5t14 -152.5t-20 -162q-72 -324 -312 -510t-616 -186h-518zM322 154q-6 -28 -8.5 -44.5t0.5 -31t10.5 -21.5t25.5 -12t42 -6.5t63 -1.5
q125 0 235 49t193.5 138t144.5 211.5t94 271.5q25 109 27 210t-21.5 188.5t-69.5 152.5t-123 102t-177 37h-158zM580 1794l26 21l281 -123l332 123l16 -21l-365 -270h-41z" />
    <glyph glyph-name="dcaron" unicode="&#x10f;" horiz-adv-x="1308" 
d="M1116 1141l162 354l233 2l-366 -356h-29zM51 455q55 257 231.5 428.5t383.5 171.5q96 0 163 -60l50 252q18 88 -4.5 123t-90.5 37v27q105 7 185.5 28t167.5 76l18 -14l-39 -185l-205 -966q-5 -24 -15 -68q-13 -57 -18 -82.5t-8.5 -56.5t2.5 -42.5t21 -12.5
q36 -5 87.5 78.5t92.5 240.5l19 -6q-29 -124 -70.5 -215t-87 -139.5t-91.5 -67.5t-91 -10q-42 7 -65 33.5t-27.5 74.5t2 103.5t24.5 136.5l29 123q-38 -95 -88.5 -180t-108.5 -153.5t-124.5 -109t-129.5 -40.5q-70 0 -122 39t-77 104t-30.5 151t16.5 181zM291 573
q-35 -113 -45 -205t4.5 -148.5t44.5 -87t72 -30.5q65 0 143 81.5t146 223t100 300.5q29 145 4.5 229t-98.5 84q-92 0 -197.5 -118.5t-173.5 -328.5z" />
    <glyph glyph-name="Dcroat" unicode="&#x110;" horiz-adv-x="1406" 
d="M86 702l8 37h125l109 492q40 176 -115 176v27h561q105 0 195 -20.5t157.5 -58.5t119.5 -90.5t84 -116.5t48 -137.5t14 -152.5t-20 -162q-72 -324 -312 -510t-616 -186h-518v27q67 0 109.5 39t64.5 137l111 499h-125zM322 154q-6 -28 -8.5 -44.5t0.5 -31t10.5 -21.5
t25.5 -12t42 -6.5t63 -1.5q125 0 235 49t193.5 138t144.5 211.5t94 271.5q25 109 27 210t-21.5 188.5t-69.5 152.5t-123 102t-177 37h-158l-147 -658h233l-8 -37h-234z" />
    <glyph glyph-name="dcroat" unicode="&#x111;" horiz-adv-x="1110" 
d="M588 1217l8 36h285q15 86 -8 119t-89 35v27q105 7 185.5 28t167.5 76l18 -14l-39 -185l-18 -86h123l-9 -36h-122l-179 -844q-5 -24 -15 -68q-13 -57 -18 -82.5t-8.5 -56.5t2.5 -42.5t21 -12.5q36 -5 87.5 78.5t92.5 240.5l19 -6q-29 -124 -70.5 -215t-87 -139.5
t-91.5 -67.5t-91 -10q-42 7 -65 33.5t-27.5 74.5t2 103.5t24.5 136.5l29 123q-38 -95 -88.5 -180t-108.5 -153.5t-124.5 -109t-129.5 -40.5q-70 0 -122 39t-77 104t-30.5 151t16.5 181q55 257 231.5 428.5t383.5 171.5q96 0 163 -60l43 222h-284zM291 573q-35 -113 -45 -205
t4.5 -148.5t44.5 -87t72 -30.5q65 0 143 81.5t146 223t100 300.5q29 145 4.5 229t-98.5 84q-92 0 -197.5 -118.5t-173.5 -328.5z" />
    <glyph glyph-name="Emacron" unicode="&#x112;" horiz-adv-x="1224" 
d="M-61 0v27q67 0 108.5 39.5t63.5 138.5l217 1024q37 178 -117 178v27h1024l-33 -424l-24 -2q8 199 -63 295t-232 96h-285l-139 -651h227q103 0 160.5 50.5t85.5 180.5h26l-110 -524h-27q27 139 -7.5 198.5t-137.5 59.5h-223l-121 -568q-13 -60 4 -85t80 -25h207
q164 0 297.5 103t222.5 292l22 -4l-164 -426h-1062zM481 1587l23 107h583l-22 -107h-584z" />
    <glyph glyph-name="emacron" unicode="&#x113;" horiz-adv-x="935" 
d="M399 -18q-174 0 -271 132.5t-71 344.5q14 123 69 235t135.5 191.5t183.5 126.5t210 47q104 0 168.5 -49t61.5 -131q-3 -94 -89 -173t-222.5 -125t-292.5 -53q-26 -194 39 -308t198 -114q120 0 221 113t150 307l22 -6q-51 -234 -195 -386t-317 -152zM283 549
q88 9 162 38.5t122.5 69.5t82.5 88t48 94t13 87q-3 46 -28.5 73t-66.5 27q-107 0 -204.5 -138.5t-126.5 -330.5q0 -4 -2 -8zM373 1284l22 107h584l-23 -107h-583z" />
    <glyph glyph-name="Edotaccent" unicode="&#x116;" horiz-adv-x="1224" 
d="M-61 0v27q67 0 108.5 39.5t63.5 138.5l217 1024q37 178 -117 178v27h1024l-33 -424l-24 -2q8 199 -63 295t-232 96h-285l-139 -651h227q103 0 160.5 50.5t85.5 180.5h26l-110 -524h-27q27 139 -7.5 198.5t-137.5 59.5h-223l-121 -568q-13 -60 4 -85t80 -25h207
q164 0 297.5 103t222.5 292l22 -4l-164 -426h-1062zM649 1669q5 59 46 98t102 39t97.5 -39t31.5 -98q-3 -63 -44 -103t-104 -40q-61 0 -96.5 40t-32.5 103z" />
    <glyph glyph-name="edotaccent" unicode="&#x117;" horiz-adv-x="935" 
d="M399 -18q-174 0 -271 132.5t-71 344.5q14 123 69 235t135.5 191.5t183.5 126.5t210 47q104 0 168.5 -49t61.5 -131q-3 -94 -89 -173t-222.5 -125t-292.5 -53q-26 -194 39 -308t198 -114q120 0 221 113t150 307l22 -6q-51 -234 -195 -386t-317 -152zM283 549
q88 9 162 38.5t122.5 69.5t82.5 88t48 94t13 87q-3 46 -28.5 73t-66.5 27q-107 0 -204.5 -138.5t-126.5 -330.5q0 -4 -2 -8zM539 1364q5 59 45.5 98t101.5 39t97.5 -39t31.5 -98q-3 -63 -43.5 -103t-103.5 -40q-61 0 -96.5 40t-32.5 103z" />
    <glyph glyph-name="Eogonek" unicode="&#x118;" horiz-adv-x="1224" 
d="M-61 0v27q67 0 108.5 39.5t63.5 138.5l217 1024q37 178 -117 178v27h1024l-33 -424l-24 -2q8 199 -63 295t-232 96h-285l-139 -651h227q103 0 160.5 50.5t85.5 180.5h26l-110 -524h-27q27 139 -7.5 198.5t-137.5 59.5h-223l-121 -568q-13 -60 4 -85t80 -25h207
q164 0 297.5 103t222.5 292l22 -4l-164 -426h-63q-133 -72 -154 -174q-14 -64 22 -98.5t85 -34.5q72 0 117 57l16 -6q-34 -76 -96.5 -121t-134.5 -45q-81 0 -127.5 53.5t-28.5 135.5q15 73 79.5 135.5t153.5 97.5h-931z" />
    <glyph glyph-name="eogonek" unicode="&#x119;" horiz-adv-x="935" 
d="M342 -430q-81 0 -127.5 53t-28.5 135q13 68 70.5 127.5t138.5 96.5q-172 2 -268 134.5t-70 342.5q14 123 69 235t135.5 191.5t183.5 126.5t210 47q104 0 168.5 -49t61.5 -131q-3 -94 -89 -173t-222.5 -125t-292.5 -53q-26 -194 39 -308t198 -114q120 0 221 113t150 307
l22 -6q-44 -202 -159 -345.5t-260 -180.5q-138 -74 -158 -176q-14 -64 21.5 -98.5t84.5 -34.5q72 0 117 57l16 -6q-34 -76 -96.5 -121t-134.5 -45zM283 549q88 9 162 38.5t122.5 69.5t82.5 88t48 94t13 87q-3 46 -28.5 73t-66.5 27q-107 0 -204.5 -138.5t-126.5 -330.5
q0 -4 -2 -8z" />
    <glyph glyph-name="Ecaron" unicode="&#x11a;" horiz-adv-x="1224" 
d="M-61 0v27q67 0 108.5 39.5t63.5 138.5l217 1024q37 178 -117 178v27h1024l-33 -424l-24 -2q8 199 -63 295t-232 96h-285l-139 -651h227q103 0 160.5 50.5t85.5 180.5h26l-110 -524h-27q27 139 -7.5 198.5t-137.5 59.5h-223l-121 -568q-13 -60 4 -85t80 -25h207
q164 0 297.5 103t222.5 292l22 -4l-164 -426h-1062zM528 1794l27 21l281 -123l331 123l17 -21l-365 -270h-41z" />
    <glyph glyph-name="ecaron" unicode="&#x11b;" horiz-adv-x="935" 
d="M399 -18q-174 0 -271 132.5t-71 344.5q14 123 69 235t135.5 191.5t183.5 126.5t210 47q104 0 168.5 -49t61.5 -131q-3 -94 -89 -173t-222.5 -125t-292.5 -53q-26 -194 39 -308t198 -114q120 0 221 113t150 307l22 -6q-51 -234 -195 -386t-317 -152zM283 549
q88 9 162 38.5t122.5 69.5t82.5 88t48 94t13 87q-3 46 -28.5 73t-66.5 27q-107 0 -204.5 -138.5t-126.5 -330.5q0 -4 -2 -8zM395 1489l27 20l256 -178l332 178l18 -20l-366 -330h-41z" />
    <glyph glyph-name="Gbreve" unicode="&#x11e;" horiz-adv-x="1513" 
d="M735 -23q-161 0 -292 57.5t-213 161t-113.5 248t6.5 318.5q43 201 168.5 359.5t313 247.5t405.5 89q54 0 109.5 -10.5t85.5 -21t72 -28t46 -18.5q55 -21 88 -16q57 8 82 96h31l-78 -551h-29q-1 141 -52 259t-143 188.5t-206 70.5q-107 0 -212.5 -55.5t-189 -147.5
t-145 -211.5t-86.5 -246.5q-21 -123 -18 -234.5t35 -206.5t83 -164.5t126 -109t163 -39.5q55 0 106.5 18t100 55.5t86 103.5t55.5 153l19 92q20 97 -27.5 137.5t-144.5 40.5v27l526 -2v-27q-49 0 -81.5 -39.5t-53.5 -138.5l-94 -444l-23 -2l-53 127q-214 -136 -453 -136z
M860 1825l31 4q0 -57 53 -103.5t152 -46.5q96 0 169.5 47t96.5 103l24 -4q-23 -108 -115 -191.5t-204 -83.5q-119 0 -175.5 79t-31.5 196z" />
    <glyph glyph-name="gbreve" unicode="&#x11f;" horiz-adv-x="1054" 
d="M328 -430q-103 0 -190 29.5t-139 73.5t-81 91.5t-29 88.5q0 30 12 52.5t36.5 37t51 24.5t65.5 15t69.5 7t73.5 3q-100 39 -136.5 168t-1.5 295q56 259 230.5 429.5t384.5 170.5q119 0 211 -82l153 102l23 -14l-232 -1061q-44 -203 -183 -316.5t-318 -113.5zM88 -135
q-3 -87 69.5 -174.5t164.5 -87.5q204 0 292 397l109 479q-52 -133 -121 -243t-156 -182.5t-170 -73.5q-97 -3 -141 -31t-47 -84zM303 573q-36 -115 -46 -207.5t4.5 -148.5t43.5 -85.5t70 -29.5q67 0 151 97.5t153 248.5t97 300q23 124 -2 198t-100 74q-92 0 -196.5 -115
t-174.5 -332zM510 1518l31 4q-5 -72 46.5 -122t151.5 -50q99 0 173 50t100 122l24 -4q-28 -136 -120 -225t-207 -89q-122 0 -176 85t-23 229z" />
    <glyph glyph-name="Gdotaccent" unicode="&#x120;" horiz-adv-x="1513" 
d="M735 -23q-161 0 -292 57.5t-213 161t-113.5 248t6.5 318.5q43 201 168.5 359.5t313 247.5t405.5 89q54 0 109.5 -10.5t85.5 -21t72 -28t46 -18.5q55 -21 88 -16q57 8 82 96h31l-78 -551h-29q-1 141 -52 259t-143 188.5t-206 70.5q-107 0 -212.5 -55.5t-189 -147.5
t-145 -211.5t-86.5 -246.5q-21 -123 -18 -234.5t35 -206.5t83 -164.5t126 -109t163 -39.5q55 0 106.5 18t100 55.5t86 103.5t55.5 153l19 92q20 97 -27.5 137.5t-144.5 40.5v27l526 -2v-27q-49 0 -81.5 -39.5t-53.5 -138.5l-94 -444l-23 -2l-53 127q-214 -136 -453 -136z
M911 1669q5 59 46 98t102 39t97.5 -39t31.5 -98q-3 -63 -44 -103t-104 -40q-61 0 -96.5 40t-32.5 103z" />
    <glyph glyph-name="gdotaccent" unicode="&#x121;" horiz-adv-x="1054" 
d="M328 -430q-103 0 -190 29.5t-139 73.5t-81 91.5t-29 88.5q0 30 12 52.5t36.5 37t51 24.5t65.5 15t69.5 7t73.5 3q-100 39 -136.5 168t-1.5 295q56 259 230.5 429.5t384.5 170.5q119 0 211 -82l153 102l23 -14l-232 -1061q-44 -203 -183 -316.5t-318 -113.5zM88 -135
q-3 -87 69.5 -174.5t164.5 -87.5q204 0 292 397l109 479q-52 -133 -121 -243t-156 -182.5t-170 -73.5q-97 -3 -141 -31t-47 -84zM303 573q-36 -115 -46 -207.5t4.5 -148.5t43.5 -85.5t70 -29.5q67 0 151 97.5t153 248.5t97 300q23 124 -2 198t-100 74q-92 0 -196.5 -115
t-174.5 -332zM594 1358q5 59 45.5 98t101.5 39t97.5 -39t31.5 -98q-3 -63 -43.5 -103.5t-103.5 -40.5q-61 0 -96.5 40t-32.5 104z" />
    <glyph glyph-name="uni0122" unicode="&#x122;" horiz-adv-x="1513" 
d="M735 -23q-161 0 -292 57.5t-213 161t-113.5 248t6.5 318.5q43 201 168.5 359.5t313 247.5t405.5 89q54 0 109.5 -10.5t85.5 -21t72 -28t46 -18.5q55 -21 88 -16q57 8 82 96h31l-78 -551h-29q-1 141 -52 259t-143 188.5t-206 70.5q-107 0 -212.5 -55.5t-189 -147.5
t-145 -211.5t-86.5 -246.5q-21 -123 -18 -234.5t35 -206.5t83 -164.5t126 -109t163 -39.5q55 0 106.5 18t100 55.5t86 103.5t55.5 153l19 92q20 97 -27.5 137.5t-144.5 40.5v27l526 -2v-27q-49 0 -81.5 -39.5t-53.5 -138.5l-94 -444l-23 -2l-53 127q-214 -136 -453 -136z
M532 -436q58 4 105 31.5t59 62.5q7 19 -1 37t-24 31t-32 31t-23 38t2 51q16 46 59 63t85 7q46 -13 63.5 -63.5t-0.5 -108.5q-17 -63 -68 -110t-107.5 -68.5t-112.5 -24.5z" />
    <glyph glyph-name="uni0123" unicode="&#x123;" horiz-adv-x="1054" 
d="M328 -430q-103 0 -190 29.5t-139 73.5t-81 91.5t-29 88.5q0 30 12 52.5t36.5 37t51 24.5t65.5 15t69.5 7t73.5 3q-100 39 -136.5 168t-1.5 295q56 259 230.5 429.5t384.5 170.5q119 0 211 -82l153 102l23 -14l-232 -1061q-44 -203 -183 -316.5t-318 -113.5zM88 -135
q-3 -87 69.5 -174.5t164.5 -87.5q204 0 292 397l109 479q-52 -133 -121 -243t-156 -182.5t-170 -73.5q-97 -3 -141 -31t-47 -84zM303 573q-36 -115 -46 -207.5t4.5 -148.5t43.5 -85.5t70 -29.5q67 0 151 97.5t153 248.5t97 300q23 124 -2 198t-100 74q-92 0 -196.5 -115
t-174.5 -332zM621 1384q30 108 125 169.5t196 64.5l4 -25q-63 -4 -115 -37t-67 -75q-7 -22 0 -41t22 -32t29.5 -32t21.5 -41.5t-1 -58.5q-12 -50 -53.5 -73t-88.5 -11q-57 18 -76 74t3 118z" />
    <glyph glyph-name="Hbar" unicode="&#x126;" horiz-adv-x="1488" 
d="M119 989l8 35h184l43 205q37 178 -116 178v27h520v-27q-67 0 -108.5 -39.5t-63.5 -138.5l-43 -205h620l43 205q40 178 -114 178v27h520v-27q-67 0 -109 -39.5t-63 -138.5l-43 -205h182l-8 -35h-182l-166 -784q-37 -178 114 -178v-27h-518v27q67 0 108.5 39.5t63.5 138.5
l105 495h-623l-104 -495q-37 -178 116 -178v-27h-520v27q67 0 108.5 39.5t63.5 138.5l166 784h-184zM481 735h623l53 254h-622z" />
    <glyph glyph-name="hbar" unicode="&#x127;" horiz-adv-x="1271" 
d="M117 1217l8 36h156q17 85 -6.5 118.5t-90.5 33.5v29q108 7 188 27t167 75l16 -14l-39 -185l-18 -84h309l-8 -36h-310l-153 -719q60 156 135.5 283t168.5 210.5t179 83.5q116 0 181.5 -108t56.5 -281q-5 -109 -46 -230.5t-106 -226.5t-158 -174t-192 -69q-78 0 -123 41.5
t-45 95.5q0 49 32 88t85 39q52 0 82.5 -38.5t23.5 -98.5q-6 -41 7 -59t38 -15q30 3 66.5 39.5t70.5 98t57.5 157t24.5 203.5q1 203 -49 300t-116 97q-50 0 -115 -66t-128.5 -175.5t-121.5 -265.5t-92 -323l-23 -104h-217l260 1217h-155z" />
    <glyph glyph-name="Itilde" unicode="&#x128;" horiz-adv-x="593" 
d="M-59 0v27q66 0 107.5 39.5t62.5 138.5l217 1024q37 178 -117 178v27h526v-27q-67 0 -109 -39.5t-63 -138.5l-215 -1024q-37 -178 115 -178v-27h-524zM217 1526q27 102 89 168t153 65q37 -1 70.5 -19t55 -39t55 -38.5t71.5 -17.5q89 -2 141 108l27 -2
q-25 -99 -82.5 -164.5t-149.5 -64.5q-38 1 -74 19t-59.5 39.5t-55.5 39.5t-65 18q-52 1 -90.5 -34t-56.5 -80z" />
    <glyph glyph-name="itilde" unicode="&#x129;" horiz-adv-x="518" 
d="M188 772q20 89 -2.5 123.5t-91.5 36.5v26q107 7 187.5 27.5t167.5 75.5l18 -14l-41 -185l-102 -489q-7 -31 -19 -85q-29 -128 -24 -155q4 -21 22 -22q37 -5 88.5 78t91.5 239l19 -4q-29 -124 -70.5 -215t-87 -139.5t-91.5 -67.5t-91 -10q-42 7 -65 33.5t-27.5 74.5
t2 103.5t24.5 136.5zM63 1202q27 103 89 169t153 65q37 -1 70.5 -19t55 -39.5t55 -39t71.5 -17.5q89 -2 141 109l27 -3q-25 -99 -82 -164.5t-149 -64.5q-38 1 -74 19.5t-59.5 40t-55.5 39.5t-65 18q-52 1 -91 -34.5t-57 -80.5z" />
    <glyph glyph-name="Imacron" unicode="&#x12a;" horiz-adv-x="593" 
d="M-59 0v27q66 0 107.5 39.5t62.5 138.5l217 1024q37 178 -117 178v27h526v-27q-67 0 -109 -39.5t-63 -138.5l-215 -1024q-37 -178 115 -178v-27h-524zM201 1587l22 107h584l-23 -107h-583z" />
    <glyph glyph-name="imacron" unicode="&#x12b;" horiz-adv-x="518" 
d="M188 772q20 89 -2.5 123.5t-91.5 36.5v26q107 7 187.5 27.5t167.5 75.5l18 -14l-41 -185l-102 -489q-7 -31 -19 -85q-29 -128 -24 -155q4 -21 22 -22q37 -5 88.5 78t91.5 239l19 -4q-29 -124 -70.5 -215t-87 -139.5t-91.5 -67.5t-91 -10q-42 7 -65 33.5t-27.5 74.5
t2 103.5t24.5 136.5zM90 1282l23 107h583l-22 -107h-584z" />
    <glyph glyph-name="Iogonek" unicode="&#x12e;" horiz-adv-x="593" 
d="M-59 0v27q66 0 107.5 39.5t62.5 138.5l217 1024q37 178 -117 178v27h526v-27q-67 0 -109 -39.5t-63 -138.5l-215 -1024q-37 -178 115 -178v-27h-131q-133 -72 -154 -174q-14 -64 22 -98.5t85 -34.5q71 0 116 57l17 -6q-34 -76 -97 -121t-135 -45q-80 0 -126.5 53
t-28.5 136q15 73 79.5 135.5t153.5 97.5h-325z" />
    <glyph glyph-name="iogonek" unicode="&#x12f;" horiz-adv-x="522" 
d="M399 1219q-61 0 -95.5 40t-29.5 103q6 59 48.5 98t103.5 39t96 -39t29 -98q-5 -63 -47 -103t-105 -40zM-51 -233q13 68 71.5 128t141.5 97q-42 7 -65 33.5t-27.5 74.5t2 103.5t24.5 136.5l92 432q20 89 -2.5 123.5t-91.5 36.5v26q107 7 187.5 27.5t167.5 75.5l18 -14
l-41 -185l-102 -489q-7 -31 -19 -85q-29 -128 -24 -155q4 -21 22 -22q37 -5 88.5 78t91.5 239l19 -4q-42 -181 -107.5 -285.5t-140.5 -136.5q-138 -74 -158 -176q-14 -64 22 -98.5t85 -34.5q71 0 116 57l17 -6q-34 -76 -97 -121t-135 -45q-80 0 -126.5 53t-28.5 136z" />
    <glyph glyph-name="Idotaccent" unicode="&#x130;" horiz-adv-x="593" 
d="M-59 0v27q66 0 107.5 39.5t62.5 138.5l217 1024q37 178 -117 178v27h526v-27q-67 0 -109 -39.5t-63 -138.5l-215 -1024q-37 -178 115 -178v-27h-524zM369 1669q5 59 45.5 98t101.5 39t97.5 -39t31.5 -98q-3 -63 -43.5 -103t-103.5 -40q-61 0 -96.5 40t-32.5 103z" />
    <glyph glyph-name="dotlessi" unicode="&#x131;" horiz-adv-x="518" 
d="M188 772q20 89 -2.5 123.5t-91.5 36.5v26q107 7 187.5 27.5t167.5 75.5l18 -14l-41 -185l-102 -489q-7 -31 -19 -85q-29 -128 -24 -155q4 -21 22 -22q37 -5 88.5 78t91.5 239l19 -4q-29 -124 -70.5 -215t-87 -139.5t-91.5 -67.5t-91 -10q-42 7 -65 33.5t-27.5 74.5
t2 103.5t24.5 136.5z" />
    <glyph glyph-name="IJ" unicode="&#x132;" horiz-adv-x="1155" 
d="M-8 236v24q67 0 109 39.5t63 138.5l168 791q37 178 -115 178v27h524v-27q-67 0 -109 -39.5t-63 -138.5l-166 -791q-37 -178 115 -178v-24h-526zM12 -66q-9 66 24.5 108.5t84.5 47.5q54 4 91.5 -25t43.5 -79q4 -37 -9 -86t-14 -74q1 -46 39.5 -72t98.5 -24q247 0 350 493
l213 1006q37 178 -123 178v27h516v-27q-67 0 -108.5 -39.5t-63.5 -138.5l-205 -961q-30 -143 -93.5 -255.5t-144.5 -179.5t-170 -101.5t-180 -34.5q-155 0 -247 67t-103 170z" />
    <glyph glyph-name="IJ" unicode="&#x133;" horiz-adv-x="1155" 
d="M-8 236v24q67 0 109 39.5t63 138.5l168 791q37 178 -115 178v27h524v-27q-67 0 -109 -39.5t-63 -138.5l-166 -791q-37 -178 115 -178v-24h-526zM12 -66q-9 66 24.5 108.5t84.5 47.5q54 4 91.5 -25t43.5 -79q4 -37 -9 -86t-14 -74q1 -46 39.5 -72t98.5 -24q247 0 350 493
l213 1006q37 178 -123 178v27h516v-27q-67 0 -108.5 -39.5t-63.5 -138.5l-205 -961q-30 -143 -93.5 -255.5t-144.5 -179.5t-170 -101.5t-180 -34.5q-155 0 -247 67t-103 170z" />
    <glyph glyph-name="uni0136" unicode="&#x136;" horiz-adv-x="1363" 
d="M920 0l-398 696l-94 -88l-86 -403q-37 -178 117 -178v-27h-520v27q67 0 108.5 39.5t63.5 138.5l217 1024q37 178 -117 178v27h520v-27q-67 0 -108.5 -39.5t-63.5 -138.5l-119 -561l582 536q56 52 78 92t11.5 63.5t-41.5 35.5t-81 12v27h520v-27q-210 0 -432 -201
l-377 -348l394 -670q53 -90 102.5 -125.5t116.5 -35.5v-27h-393zM381 -436q58 4 105 31.5t59 62.5q7 19 -1 37t-24 31t-32 31t-23 38t2 51q16 46 58.5 63t84.5 7q46 -13 64 -63.5t0 -108.5q-17 -63 -68 -110t-108 -68.5t-113 -24.5z" />
    <glyph glyph-name="uni0137" unicode="&#x137;" horiz-adv-x="1050" 
d="M741 -18q-107 0 -186 99.5t-176 338.5q105 45 178 96l4 6q0 -2 2 -2q204 142 213 297q3 56 -20 87.5t-58 31.5q-43 0 -99 -57.5t-119 -167t-130 -295t-121 -416.5h-217l267 1247q20 88 -3.5 123t-91.5 35v29q108 7 188 27t167 75l16 -14l-39 -185l-205 -952
q110 337 243.5 503.5t279.5 166.5q69 0 110 -45t35 -115q-9 -108 -122.5 -219.5t-287.5 -169.5q113 -235 171 -319.5t110 -88.5q51 -3 101.5 78.5t86.5 233.5l21 -7q-43 -194 -129 -307.5t-189 -113.5zM211 -436q58 4 105 31.5t59 62.5q7 19 -1 37t-24 31t-32 31t-23 38
t2 51q16 46 58.5 63t84.5 7q46 -13 64 -63.5t0 -108.5q-17 -63 -68 -110t-108 -68.5t-113 -24.5z" />
    <glyph glyph-name="Lacute" unicode="&#x139;" horiz-adv-x="1144" 
d="M-61 0v27q67 0 108.5 39.5t63.5 138.5l217 1024q37 178 -117 178v27h520v-27q-67 0 -108.5 -39.5t-63.5 -138.5l-225 -1063q-15 -71 2 -101t74 -30h122q180 0 310 94.5t229 294.5l25 -6l-181 -418h-976zM479 1534l123 266l272 2l-368 -282z" />
    <glyph glyph-name="lacute" unicode="&#x13a;" horiz-adv-x="512" 
d="M279 1247q20 88 -3.5 123t-91.5 35v29q108 7 188 27t167 75l16 -14l-39 -185l-203 -964q-6 -30 -18 -82q-12 -54 -17 -77.5t-8 -52t3 -39t20 -11.5q38 -5 89 78.5t91 240.5l19 -6q-56 -241 -149.5 -346t-190.5 -86q-41 7 -64 33.5t-27.5 74t2 104t23.5 136.5zM403 1622
l193 340l252 2l-420 -354z" />
    <glyph glyph-name="uni013B" unicode="&#x13b;" horiz-adv-x="1144" 
d="M-61 0v27q67 0 108.5 39.5t63.5 138.5l217 1024q37 178 -117 178v27h520v-27q-67 0 -108.5 -39.5t-63.5 -138.5l-225 -1063q-15 -71 2 -101t74 -30h122q180 0 310 94.5t229 294.5l25 -6l-181 -418h-976zM225 -436q58 4 105 31.5t59 62.5q7 19 -1 37t-24 31t-32 31t-23 38
t2 51q16 46 59 63t85 7q46 -13 63.5 -63.5t-0.5 -108.5q-17 -63 -68 -110t-108 -68.5t-113 -24.5z" />
    <glyph glyph-name="uni013C" unicode="&#x13c;" horiz-adv-x="512" 
d="M279 1247q20 88 -3.5 123t-91.5 35v29q108 7 188 27t167 75l16 -14l-39 -185l-203 -964q-6 -30 -18 -82q-12 -54 -17 -77.5t-8 -52t3 -39t20 -11.5q38 -5 89 78.5t91 240.5l19 -6q-56 -241 -149.5 -346t-190.5 -86q-41 7 -64 33.5t-27.5 74t2 104t23.5 136.5zM-43 -436
q58 4 105 31.5t59 62.5q7 19 -1 37t-24 31t-32 31t-23 38t2 51q16 46 58.5 63t84.5 7q46 -13 64 -63.5t0 -108.5q-17 -63 -68 -110t-108 -68.5t-113 -24.5z" />
    <glyph glyph-name="Lcaron" unicode="&#x13d;" horiz-adv-x="1144" 
d="M-61 0v27q67 0 108.5 39.5t63.5 138.5l217 1024q37 178 -117 178v27h520v-27q-67 0 -108.5 -39.5t-63.5 -138.5l-225 -1063q-15 -71 2 -101t74 -30h122q180 0 310 94.5t229 294.5l25 -6l-181 -418h-976zM229 1794l27 21l281 -123l331 123l17 -21l-365 -270h-41z" />
    <glyph glyph-name="lcaron" unicode="&#x13e;" horiz-adv-x="657" 
d="M543 1141l162 354l233 2l-367 -356h-28zM86 340l193 907q20 88 -3.5 123t-91.5 35v29q108 7 188 27t167 75l16 -14l-39 -185l-203 -964q-6 -30 -18 -82q-12 -54 -17 -77.5t-8 -52t3 -39t20 -11.5q38 -5 89 78.5t91 240.5l19 -6q-56 -241 -149.5 -346t-190.5 -86
q-41 7 -64 33.5t-27.5 74t2 104t23.5 136.5z" />
    <glyph glyph-name="Lslash" unicode="&#x141;" horiz-adv-x="1224" 
d="M14 500l-14 22l209 150l119 557q37 178 -117 178v27h520v-27q-67 0 -108.5 -39.5t-63.5 -138.5l-76 -363l162 117l17 -27l-189 -133l-139 -657q-15 -71 2 -101t74 -30h122q180 0 310 94.5t229 294.5l25 -6l-181 -418h-976v27q67 0 108.5 39.5t63.5 138.5l90 426z" />
    <glyph glyph-name="lslash" unicode="&#x142;" horiz-adv-x="559" 
d="M-2 532l-18 29l215 146l114 540q20 88 -3 123t-91 35v29q108 7 187.5 27t166.5 75l17 -14l-39 -185l-96 -456l186 127l20 -29l-217 -148l-96 -458q-6 -30 -18 -82q-12 -54 -17 -77.5t-8 -52t3 -39t20 -11.5q38 -5 89 78.5t91 240.5l18 -6q-56 -241 -149.5 -346
t-190.5 -86q-41 7 -63.5 33.5t-27 74.5t2 103.5t23.5 136.5l67 319z" />
    <glyph glyph-name="Nacute" unicode="&#x143;" horiz-adv-x="1384" 
d="M-127 0v27q95 0 166 68t102 214l172 815q30 145 -14 214t-139 69v27h319l654 -1080l163 770q30 145 -18 214t-148 69v27h478v-27q-94 0 -165 -68.5t-102 -214.5l-237 -1124h-35l-707 1137l-176 -828q-32 -145 25 -213.5t172 -68.5v-27h-510zM850 1534l123 266l272 2
l-368 -282z" />
    <glyph glyph-name="nacute" unicode="&#x144;" horiz-adv-x="1136" 
d="M25 0l163 772q20 87 -3 122.5t-91 35.5v26q105 7 186 28.5t169 76.5l16 -14l-39 -185l-109 -506q110 326 259 514.5t305 188.5q117 0 156 -93.5t-11 -279.5l-90 -328q-8 -30 -24 -82q-15 -52 -21.5 -75.5t-11 -51.5t0.5 -38.5t19 -12.5q36 -7 93.5 74t107.5 234l18 -7
q-37 -122 -83.5 -210t-95 -133.5t-95.5 -62t-92 -5.5q-41 11 -62 38.5t-22.5 75.5t8.5 102.5t33 135.5l84 295q20 69 28.5 122.5t6 86t-13.5 53.5t-26.5 29t-35.5 8q-72 0 -163.5 -113.5t-185.5 -330.5t-161 -490h-217zM639 1167l192 340l252 2l-419 -354z" />
    <glyph glyph-name="uni0145" unicode="&#x145;" horiz-adv-x="1384" 
d="M-127 0v27q95 0 166 68t102 214l172 815q30 145 -14 214t-139 69v27h319l654 -1080l163 770q30 145 -18 214t-148 69v27h478v-27q-94 0 -165 -68.5t-102 -214.5l-237 -1124h-35l-707 1137l-176 -828q-32 -145 25 -213.5t172 -68.5v-27h-510zM367 -436q58 4 104.5 31
t58.5 63q7 19 -1 37t-24 31t-31.5 31t-22.5 38t2 51q16 46 58.5 63t84.5 7q46 -13 63.5 -63.5t-0.5 -108.5q-17 -63 -68 -110t-107.5 -68.5t-112.5 -24.5z" />
    <glyph glyph-name="uni0146" unicode="&#x146;" horiz-adv-x="1136" 
d="M25 0l163 772q20 87 -3 122.5t-91 35.5v26q105 7 186 28.5t169 76.5l16 -14l-39 -185l-109 -506q110 326 259 514.5t305 188.5q117 0 156 -93.5t-11 -279.5l-90 -328q-8 -30 -24 -82q-15 -52 -21.5 -75.5t-11 -51.5t0.5 -38.5t19 -12.5q36 -7 93.5 74t107.5 234l18 -7
q-37 -122 -83.5 -210t-95 -133.5t-95.5 -62t-92 -5.5q-41 11 -62 38.5t-22.5 75.5t8.5 102.5t33 135.5l84 295q20 69 28.5 122.5t6 86t-13.5 53.5t-26.5 29t-35.5 8q-72 0 -163.5 -113.5t-185.5 -330.5t-161 -490h-217zM236 -436q58 4 104.5 31t58.5 63q7 19 -1 37t-24 31
t-31.5 31t-22.5 38t2 51q16 46 58.5 63t84.5 7q46 -13 63.5 -63.5t-0.5 -108.5q-17 -63 -68 -110t-107.5 -68.5t-112.5 -24.5z" />
    <glyph glyph-name="Ncaron" unicode="&#x147;" horiz-adv-x="1384" 
d="M-127 0v27q95 0 166 68t102 214l172 815q30 145 -14 214t-139 69v27h319l654 -1080l163 770q30 145 -18 214t-148 69v27h478v-27q-94 0 -165 -68.5t-102 -214.5l-237 -1124h-35l-707 1137l-176 -828q-32 -145 25 -213.5t172 -68.5v-27h-510zM600 1794l27 21l280 -123
l332 123l16 -21l-364 -270h-41z" />
    <glyph glyph-name="ncaron" unicode="&#x148;" horiz-adv-x="1136" 
d="M25 0l163 772q20 87 -3 122.5t-91 35.5v26q105 7 186 28.5t169 76.5l16 -14l-39 -185l-109 -506q110 326 259 514.5t305 188.5q117 0 156 -93.5t-11 -279.5l-90 -328q-8 -30 -24 -82q-15 -52 -21.5 -75.5t-11 -51.5t0.5 -38.5t19 -12.5q36 -7 93.5 74t107.5 234l18 -7
q-37 -122 -83.5 -210t-95 -133.5t-95.5 -62t-92 -5.5q-41 11 -62 38.5t-22.5 75.5t8.5 102.5t33 135.5l84 295q20 69 28.5 122.5t6 86t-13.5 53.5t-26.5 29t-35.5 8q-72 0 -163.5 -113.5t-185.5 -330.5t-161 -490h-217zM446 1487l27 20l256 -178l332 178l18 -20l-366 -330
h-41z" />
    <glyph glyph-name="Eng" unicode="&#x14a;" horiz-adv-x="1384" 
d="M643 -403q58 0 106.5 34t82.5 92t56.5 119t37.5 131l41 191l-605 973l-176 -828q-32 -145 25 -213.5t172 -68.5v-27h-510v27q95 0 166 68t102 214l172 815q30 145 -14 214t-139 69v27h319l654 -1080l163 770q30 145 -18 214t-148 69v27h478v-27q-94 0 -165 -68.5
t-102 -214.5l-237 -1124l-6 -27q-41 -188 -164.5 -294.5t-294.5 -106.5z" />
    <glyph glyph-name="eng" unicode="&#x14b;" horiz-adv-x="1120" 
d="M301 -397q229 13 344 450l148 582q76 299 -41 299q-72 0 -163.5 -113.5t-185.5 -330.5t-161 -490h-217l163 772q20 87 -3 122.5t-91 35.5v26q105 7 186 28.5t169 76.5l16 -14l-39 -185l-109 -506q110 326 259 514.5t305 188.5q117 0 153.5 -96.5t-14.5 -303.5l-133 -509
q-48 -189 -140 -318.5t-204 -190t-244 -65.5z" />
    <glyph glyph-name="Omacron" unicode="&#x14c;" horiz-adv-x="1531" 
d="M659 -23q-111 -1 -210 38t-170.5 108.5t-119 166t-56.5 211.5t18 244q30 130 91.5 244t143 197.5t179 144.5t202 92t209.5 33q115 3 216 -34.5t173.5 -107t120.5 -166.5t57 -212.5t-16 -245.5q-36 -162 -121.5 -297.5t-199 -225.5t-247.5 -139.5t-270 -50.5zM350 688
q-16 -111 -14 -211.5t29.5 -186.5t71 -148t111 -95.5t150.5 -28.5q127 8 245 103t204.5 259t118.5 363q17 117 16 222t-28 192t-72.5 148t-117 90.5t-161.5 19.5q-124 -13 -239.5 -110t-199.5 -260t-114 -357zM682 1587l23 107h583l-22 -107h-584z" />
    <glyph glyph-name="omacron" unicode="&#x14d;" horiz-adv-x="1060" 
d="M414 -18q-126 0 -218.5 74t-126 200.5t0.5 294.5q28 118 89.5 216.5t141.5 161.5t171.5 97.5t182.5 34.5q123 0 214 -72t125 -197t-1 -292q-27 -120 -88 -219.5t-140.5 -164t-170 -99.5t-180.5 -35zM297 512q-45 -244 -6.5 -372.5t145.5 -125.5q98 3 188 141t140 377
q46 241 11 370t-140 126q-103 -3 -197.5 -143.5t-140.5 -372.5zM406 1282l22 107h584l-23 -107h-583z" />
    <glyph glyph-name="Ohungarumlaut" unicode="&#x150;" horiz-adv-x="1531" 
d="M659 -23q-111 -1 -210 38t-170.5 108.5t-119 166t-56.5 211.5t18 244q30 130 91.5 244t143 197.5t179 144.5t202 92t209.5 33q115 3 216 -34.5t173.5 -107t120.5 -166.5t57 -212.5t-16 -245.5q-36 -162 -121.5 -297.5t-199 -225.5t-247.5 -139.5t-270 -50.5zM350 688
q-16 -111 -14 -211.5t29.5 -186.5t71 -148t111 -95.5t150.5 -28.5q127 8 245 103t204.5 259t118.5 363q17 117 16 222t-28 192t-72.5 148t-117 90.5t-161.5 19.5q-124 -13 -239.5 -110t-199.5 -260t-114 -357zM971 1526l141 274l184 2h21l-301 -282l-15 4l-4 -4z" />
    <glyph glyph-name="ohungarumlaut" unicode="&#x151;" horiz-adv-x="1060" 
d="M414 -18q-126 0 -218.5 74t-126 200.5t0.5 294.5q28 118 89.5 216.5t141.5 161.5t171.5 97.5t182.5 34.5q123 0 214 -72t125 -197t-1 -292q-27 -120 -88 -219.5t-140.5 -164t-170 -99.5t-180.5 -35zM297 512q-45 -244 -6.5 -372.5t145.5 -125.5q98 3 188 141t140 377
q46 241 11 370t-140 126q-103 -3 -197.5 -143.5t-140.5 -372.5zM625 1149l151 303l185 2h18l-309 -311l-15 4l-4 -4z" />
    <glyph glyph-name="OE" unicode="&#x152;" horiz-adv-x="2072" 
d="M705 0q-115 0 -219 38t-182 107t-130.5 165t-64.5 211.5t16 246.5q49 197 183 351t312 234.5t367 80.5h1088l-29 -359l-31 -6q3 330 -301 330h-299l-137 -649h244q107 0 165 53t87 184h28l-108 -514h-29q27 132 -9 187t-143 55h-243l-121 -570q-13 -60 5.5 -85t84.5 -25
h223q180 0 303.5 96.5t219.5 282.5l24 -6l-172 -408h-1132zM371 729q-27 -175 10.5 -335t133 -260.5t224.5 -100.5q37 0 61 3t50 13.5t42 33.5t23 60l238 1119q11 37 5.5 63t-15.5 41.5t-32.5 24t-45 11.5t-53.5 3q-234 0 -414 -189.5t-227 -486.5z" />
    <glyph glyph-name="oe" unicode="&#x153;" horiz-adv-x="1658" 
d="M414 -18q-126 0 -218.5 74t-126 200.5t0.5 294.5q28 118 89.5 216.5t141.5 161.5t171.5 97.5t182.5 34.5q104 0 185.5 -52t126.5 -145q86 92 192.5 143.5t220.5 51.5q104 0 168.5 -49t61.5 -131q-3 -94 -89 -173t-222.5 -125t-292.5 -53q-26 -194 39 -308t198 -114
q120 0 221 113t150 307l22 -6q-51 -234 -195 -386t-317 -152q-104 0 -183 49t-120 139q-87 -91 -193.5 -139.5t-213.5 -48.5zM297 512q-45 -244 -6.5 -372.5t145.5 -125.5q98 3 188 141t140 377q46 241 11 370t-140 126q-103 -3 -197.5 -143.5t-140.5 -372.5zM1008 549
q88 9 162 38.5t122.5 69.5t82.5 88t48 94t13 87q-3 46 -28.5 73t-66.5 27q-107 0 -204.5 -138.5t-126.5 -330.5q0 -4 -2 -8z" />
    <glyph glyph-name="Racute" unicode="&#x154;" horiz-adv-x="1314" 
d="M-61 0v27q67 0 108.5 39.5t63.5 138.5l217 1024q37 178 -117 178v27h645q73 0 133.5 -14t102.5 -38.5t73.5 -58t49.5 -72t26.5 -81t7.5 -84t-10 -82.5q-15 -70 -53.5 -130.5t-103.5 -112.5t-168 -83t-234 -35q48 -3 88 -15.5t82 -39t76.5 -76t58.5 -119.5l70 -194
q34 -96 81.5 -134t120.5 -38v-27h-389l-159 455q-61 159 -217 176l4 18q426 -5 505 367q11 57 12 110t-12 103.5t-39 87.5t-73 59.5t-111 22.5h-182l-254 -1194q-37 -178 117 -178v-27h-520zM739 1534l123 266l273 2l-369 -282z" />
    <glyph glyph-name="racute" unicode="&#x155;" horiz-adv-x="823" 
d="M188 772q20 89 -2.5 123.5t-91.5 36.5v26q107 7 187.5 27.5t167.5 75.5l18 -14l-39 -185l-102 -483q46 156 88.5 269.5t91 206t101 143t110.5 59.5t101.5 -22t51.5 -83q7 -52 -20.5 -98.5t-83.5 -56.5q-42 -7 -75.5 15t-45.5 54q-23 55 -67 25q-50 -30 -145 -269.5
t-189 -621.5h-224zM496 1167l192 340l252 2l-420 -354z" />
    <glyph glyph-name="uni0156" unicode="&#x156;" horiz-adv-x="1314" 
d="M-61 0v27q67 0 108.5 39.5t63.5 138.5l217 1024q37 178 -117 178v27h645q73 0 133.5 -14t102.5 -38.5t73.5 -58t49.5 -72t26.5 -81t7.5 -84t-10 -82.5q-15 -70 -53.5 -130.5t-103.5 -112.5t-168 -83t-234 -35q48 -3 88 -15.5t82 -39t76.5 -76t58.5 -119.5l70 -194
q34 -96 81.5 -134t120.5 -38v-27h-389l-159 455q-61 159 -217 176l4 18q426 -5 505 367q11 57 12 110t-12 103.5t-39 87.5t-73 59.5t-111 22.5h-182l-254 -1194q-37 -178 117 -178v-27h-520zM393 -436q58 4 105 31.5t59 62.5q7 19 -1 37t-24 31t-32 31t-23 38t2 51
q16 46 59 63t85 7q46 -13 63.5 -63.5t-0.5 -108.5q-17 -63 -68 -110t-108 -68.5t-113 -24.5z" />
    <glyph glyph-name="uni0157" unicode="&#x157;" horiz-adv-x="823" 
d="M188 772q20 89 -2.5 123.5t-91.5 36.5v26q107 7 187.5 27.5t167.5 75.5l18 -14l-39 -185l-102 -483q46 156 88.5 269.5t91 206t101 143t110.5 59.5t101.5 -22t51.5 -83q7 -52 -20.5 -98.5t-83.5 -56.5q-42 -7 -75.5 15t-45.5 54q-23 55 -67 25q-50 -30 -145 -269.5
t-189 -621.5h-224zM-96 -436q58 4 105 31.5t59 62.5q7 19 -1 37t-24 31t-32 31t-23 38t2 51q16 46 58.5 63t84.5 7q46 -13 64 -63.5t0 -108.5q-17 -63 -68 -110t-108 -68.5t-113 -24.5z" />
    <glyph glyph-name="Rcaron" unicode="&#x158;" horiz-adv-x="1314" 
d="M-61 0v27q67 0 108.5 39.5t63.5 138.5l217 1024q37 178 -117 178v27h645q73 0 133.5 -14t102.5 -38.5t73.5 -58t49.5 -72t26.5 -81t7.5 -84t-10 -82.5q-15 -70 -53.5 -130.5t-103.5 -112.5t-168 -83t-234 -35q48 -3 88 -15.5t82 -39t76.5 -76t58.5 -119.5l70 -194
q34 -96 81.5 -134t120.5 -38v-27h-389l-159 455q-61 159 -217 176l4 18q426 -5 505 367q11 57 12 110t-12 103.5t-39 87.5t-73 59.5t-111 22.5h-182l-254 -1194q-37 -178 117 -178v-27h-520zM489 1794l27 21l281 -123l331 123l17 -21l-365 -270h-41z" />
    <glyph glyph-name="rcaron" unicode="&#x159;" horiz-adv-x="823" 
d="M188 772q20 89 -2.5 123.5t-91.5 36.5v26q107 7 187.5 27.5t167.5 75.5l18 -14l-39 -185l-102 -483q46 156 88.5 269.5t91 206t101 143t110.5 59.5t101.5 -22t51.5 -83q7 -52 -20.5 -98.5t-83.5 -56.5q-42 -7 -75.5 15t-45.5 54q-23 55 -67 25q-50 -30 -145 -269.5
t-189 -621.5h-224zM303 1487l27 20l256 -178l332 178l18 -20l-367 -330h-41z" />
    <glyph glyph-name="Sacute" unicode="&#x15a;" horiz-adv-x="1054" 
d="M438 -14q-38 0 -73 4.5t-68.5 14.5t-50.5 16t-49 20.5t-35 15.5q-30 11 -57.5 12.5t-53.5 -15.5t-35 -54h-28l104 549l29 -2q-10 -107 4 -200.5t50.5 -167.5t104.5 -117t160 -44q115 0 202 61t110 161q20 91 -17.5 178t-126.5 151l-202 148q-240 176 -185 401
q25 104 102 182t174.5 115.5t200.5 36.5q20 0 39.5 -1.5t35 -3.5t33.5 -6t29.5 -6.5t27.5 -8t24 -8.5t23 -9.5t19.5 -8.5t20 -9.5t17.5 -8.5q25 -9 48.5 -9t45.5 20t33 59h24l-110 -530l-29 2q25 223 -55 356t-224 139q-108 3 -183.5 -55.5t-96.5 -151.5q-19 -81 15.5 -160
t119.5 -143l201 -151q247 -185 190 -422q-18 -75 -58.5 -136t-92 -100.5t-113.5 -66t-123 -37.5t-121 -10zM674 1538l123 266l272 2l-369 -282z" />
    <glyph glyph-name="sacute" unicode="&#x15b;" horiz-adv-x="790" 
d="M322 -23q-68 -1 -134 19.5t-120 66.5t-72 109q-15 54 3.5 98.5t61.5 59.5q42 15 82 -3.5t54 -58.5q13 -37 -7.5 -93.5t-17.5 -82.5q5 -38 42.5 -62.5t98.5 -21.5q63 2 114.5 38t64.5 99q14 65 -26 132t-142 169q-110 110 -154 195.5t-25 181.5q22 105 114 171.5t224 70.5
q105 3 192 -42t109 -128q15 -50 -3 -95.5t-62 -60.5q-40 -15 -77 2.5t-52 57.5q-11 41 -3 64.5t19.5 52t7.5 47.5q-6 31 -38 52.5t-80 20.5q-66 -2 -114.5 -43t-57.5 -104q-8 -59 23 -114.5t120 -141.5q108 -105 145 -154q89 -118 66 -241q-24 -125 -124 -192t-232 -69z
M469 1163l193 340l251 2l-419 -354z" />
    <glyph glyph-name="Scedilla" unicode="&#x15e;" horiz-adv-x="1054" 
d="M438 -14q-38 0 -73 4.5t-68.5 14.5t-50.5 16t-49 20.5t-35 15.5q-30 11 -57.5 12.5t-53.5 -15.5t-35 -54h-28l104 549l29 -2q-10 -107 4 -200.5t50.5 -167.5t104.5 -117t160 -44q115 0 202 61t110 161q20 91 -17.5 178t-126.5 151l-202 148q-240 176 -185 401
q25 104 102 182t174.5 115.5t200.5 36.5q20 0 39.5 -1.5t35 -3.5t33.5 -6t29.5 -6.5t27.5 -8t24 -8.5t23 -9.5t19.5 -8.5t20 -9.5t17.5 -8.5q25 -9 48.5 -9t45.5 20t33 59h24l-110 -530l-29 2q25 223 -55 356t-224 139q-108 3 -183.5 -55.5t-96.5 -151.5q-19 -81 15.5 -160
t119.5 -143l201 -151q247 -185 190 -422q-23 -98 -84.5 -171t-134.5 -111t-160 -56l-127 -78q98 3 146 -50.5t28 -123.5q-19 -71 -85.5 -116.5t-141.5 -53.5q-75 -9 -129.5 13.5t-67.5 74.5q-9 37 6 64t46 36q28 8 53.5 -5t32.5 -40q6 -26 -3.5 -56t-7.5 -40q6 -32 43 -26
q48 6 90.5 63t36.5 113q-8 63 -66.5 79.5t-133.5 -24.5l-8 22l227 140q-23 -4 -68 -4z" />
    <glyph glyph-name="scedilla" unicode="&#x15f;" horiz-adv-x="790" 
d="M322 -23q-68 -1 -134 19.5t-120 66.5t-72 109q-15 54 3.5 98.5t61.5 59.5q42 15 82 -3.5t54 -58.5q13 -37 -7.5 -93.5t-17.5 -82.5q5 -38 42.5 -62.5t98.5 -21.5q63 2 114.5 38t64.5 99q14 65 -26 132t-142 169q-110 110 -154 195.5t-25 181.5q22 105 114 171.5t224 70.5
q105 3 192 -42t109 -128q15 -50 -3 -95.5t-62 -60.5q-40 -15 -77 2.5t-52 57.5q-11 41 -3 64.5t19.5 52t7.5 47.5q-6 31 -38 52.5t-80 20.5q-66 -2 -114.5 -43t-57.5 -104q-8 -59 23 -114.5t120 -141.5q108 -105 145 -154q89 -118 66 -241q-19 -100 -89.5 -163.5
t-170.5 -86.5l-125 -76q98 3 146 -50.5t28 -123.5q-19 -71 -85.5 -116.5t-141.5 -53.5q-75 -9 -129.5 13.5t-67.5 74.5q-9 37 6 64t45 36q28 8 53.5 -5t32.5 -40q6 -26 -3 -56t-7 -40q7 -33 43 -27q48 6 90.5 63t36.5 113q-8 63 -67 80t-134 -24l-8 22l225 138
q-15 -3 -34 -3z" />
    <glyph glyph-name="Scaron" unicode="&#x160;" horiz-adv-x="1054" 
d="M438 -14q-38 0 -73 4.5t-68.5 14.5t-50.5 16t-49 20.5t-35 15.5q-30 11 -57.5 12.5t-53.5 -15.5t-35 -54h-28l104 549l29 -2q-10 -107 4 -200.5t50.5 -167.5t104.5 -117t160 -44q115 0 202 61t110 161q20 91 -17.5 178t-126.5 151l-202 148q-240 176 -185 401
q25 104 102 182t174.5 115.5t200.5 36.5q20 0 39.5 -1.5t35 -3.5t33.5 -6t29.5 -6.5t27.5 -8t24 -8.5t23 -9.5t19.5 -8.5t20 -9.5t17.5 -8.5q25 -9 48.5 -9t45.5 20t33 59h24l-110 -530l-29 2q25 223 -55 356t-224 139q-108 3 -183.5 -55.5t-96.5 -151.5q-19 -81 15.5 -160
t119.5 -143l201 -151q247 -185 190 -422q-18 -75 -58.5 -136t-92 -100.5t-113.5 -66t-123 -37.5t-121 -10zM424 1798l27 21l280 -123l332 123l16 -21l-364 -270h-41z" />
    <glyph glyph-name="scaron" unicode="&#x161;" horiz-adv-x="790" 
d="M322 -23q-68 -1 -134 19.5t-120 66.5t-72 109q-15 54 3.5 98.5t61.5 59.5q42 15 82 -3.5t54 -58.5q13 -37 -7.5 -93.5t-17.5 -82.5q5 -38 42.5 -62.5t98.5 -21.5q63 2 114.5 38t64.5 99q14 65 -26 132t-142 169q-110 110 -154 195.5t-25 181.5q22 105 114 171.5t224 70.5
q105 3 192 -42t109 -128q15 -50 -3 -95.5t-62 -60.5q-40 -15 -77 2.5t-52 57.5q-11 41 -3 64.5t19.5 52t7.5 47.5q-6 31 -38 52.5t-80 20.5q-66 -2 -114.5 -43t-57.5 -104q-8 -59 23 -114.5t120 -141.5q108 -105 145 -154q89 -118 66 -241q-24 -125 -124 -192t-232 -69z
M274 1483l27 20l256 -178l332 178l18 -20l-366 -330h-41z" />
    <glyph glyph-name="uni0162" unicode="&#x162;" horiz-adv-x="1298" 
d="M297 0v27q67 0 109 39.5t63 138.5l254 1194h-113q-138 0 -258 -112t-186 -283l-27 4l154 426h1102l-29 -426l-29 -4q5 112 -22 199.5t-91 141.5t-157 54h-113l-252 -1194q-40 -178 115 -178v-27h-196l-132 -80q98 3 146.5 -50.5t28.5 -123.5q-19 -71 -86 -116.5
t-142 -53.5q-75 -9 -129 13.5t-67 74.5q-9 37 6 64t45 36q28 8 53.5 -5t32.5 -40q6 -26 -3 -56t-7 -40q6 -32 43 -26q48 6 90.5 63t36.5 113q-8 63 -67 79.5t-134 -24.5l-8 22l245 150h-276z" />
    <glyph glyph-name="uni0163" unicode="&#x163;" horiz-adv-x="710" 
d="M268 -20q-122 0 -167 89t-13 242l135 645h-133l4 29q130 9 235 89.5t158 217.5h29l-53 -254h309l-53 -82h-277l-129 -620q-50 -234 68 -240q65 -3 140.5 82t133.5 223l21 -8q-54 -156 -149.5 -266.5t-198.5 -138.5l-111 -68q98 3 146 -50.5t28 -123.5
q-19 -71 -85.5 -116.5t-141.5 -53.5q-75 -9 -129.5 13.5t-67.5 74.5q-9 37 6 64t45 36q28 8 53.5 -5t32.5 -40q6 -26 -3 -56t-7 -40q6 -32 43 -26q48 6 90.5 63t36.5 113q-8 63 -67 79.5t-134 -24.5l-8 22z" />
    <glyph glyph-name="Tcaron" unicode="&#x164;" horiz-adv-x="1298" 
d="M297 0v27q67 0 109 39.5t63 138.5l254 1194h-113q-138 0 -258 -112t-186 -283l-27 4l154 426h1102l-29 -426l-29 -4q5 112 -22 199.5t-91 141.5t-157 54h-113l-252 -1194q-40 -178 115 -178v-27h-520zM596 1794l27 21l280 -123l332 123l16 -21l-364 -270h-41z" />
    <glyph glyph-name="tcaron" unicode="&#x165;" horiz-adv-x="714" 
d="M580 1141l159 354l234 2l-365 -356h-28zM88 311l135 645h-133l4 29q130 9 235 89.5t158 217.5h29l-53 -254h309l-53 -82h-277l-129 -620q-50 -234 68 -240q65 -3 140.5 82t133.5 223l21 -8q-62 -179 -177 -296t-231 -117q-122 0 -167 89t-13 242z" />
    <glyph glyph-name="Utilde" unicode="&#x168;" horiz-adv-x="1400" 
d="M602 -18q-116 0 -207 40t-150 119t-76 196.5t15 272.5l131 619q37 178 -116 178v27h520v-27q-67 0 -108.5 -39.5t-63.5 -138.5l-117 -549q-27 -118 -19.5 -218t41.5 -172.5t102 -113.5t163 -41q177 0 296.5 136t172.5 388l100 465q30 145 -18 214t-148 69v27h465v-27
q-89 0 -157.5 -68.5t-100.5 -214.5l-102 -483q-34 -164 -98.5 -292t-148 -207t-179 -119.5t-197.5 -40.5zM655 1526q27 102 89 168t153 65q37 -1 70.5 -19t55 -39t55 -38.5t71.5 -17.5q89 -2 141 108l27 -2q-25 -99 -82.5 -164.5t-149.5 -64.5q-38 1 -74 19t-59.5 39.5
t-55.5 39.5t-65 18q-52 1 -90.5 -34t-56.5 -80z" />
    <glyph glyph-name="utilde" unicode="&#x169;" horiz-adv-x="1136" 
d="M233 -20q-236 0 -145 372l109 428q21 87 -1 122.5t-90 37.5l3 29q105 4 185.5 22t170.5 70l16 -14l-45 -183l-114 -461q-77 -299 38 -299q53 0 119 68t133 188.5t133 298.5t117 385h217l-139 -665q-38 -176 -39 -190q-9 -70 21 -72q36 -5 88 78.5t92 238.5l18 -4
q-29 -124 -70 -215t-86.5 -139.5t-91.5 -68t-92 -11.5q-34 7 -55 27t-30.5 48.5t-9 72.5t7.5 90.5t20 111.5l71 332q-109 -325 -253.5 -511.5t-297.5 -186.5zM418 1202q27 103 88.5 169t152.5 65q37 -1 70.5 -19t55 -39.5t55 -39t71.5 -17.5q90 -2 142 109l26 -3
q-25 -99 -82 -164.5t-149 -64.5q-38 1 -74 19.5t-59.5 40t-55.5 39.5t-65 18q-52 1 -91 -34.5t-57 -80.5z" />
    <glyph glyph-name="Umacron" unicode="&#x16a;" horiz-adv-x="1400" 
d="M602 -18q-116 0 -207 40t-150 119t-76 196.5t15 272.5l131 619q37 178 -116 178v27h520v-27q-67 0 -108.5 -39.5t-63.5 -138.5l-117 -549q-27 -118 -19.5 -218t41.5 -172.5t102 -113.5t163 -41q177 0 296.5 136t172.5 388l100 465q30 145 -18 214t-148 69v27h465v-27
q-89 0 -157.5 -68.5t-100.5 -214.5l-102 -483q-34 -164 -98.5 -292t-148 -207t-179 -119.5t-197.5 -40.5zM641 1587l23 107h583l-22 -107h-584z" />
    <glyph glyph-name="umacron" unicode="&#x16b;" horiz-adv-x="1136" 
d="M233 -20q-236 0 -145 372l109 428q21 87 -1 122.5t-90 37.5l3 29q105 4 185.5 22t170.5 70l16 -14l-45 -183l-114 -461q-77 -299 38 -299q53 0 119 68t133 188.5t133 298.5t117 385h217l-139 -665q-38 -176 -39 -190q-9 -70 21 -72q36 -5 88 78.5t92 238.5l18 -4
q-29 -124 -70 -215t-86.5 -139.5t-91.5 -68t-92 -11.5q-34 7 -55 27t-30.5 48.5t-9 72.5t7.5 90.5t20 111.5l71 332q-109 -325 -253.5 -511.5t-297.5 -186.5zM444 1282l23 107h584l-23 -107h-584z" />
    <glyph glyph-name="Uring" unicode="&#x16e;" horiz-adv-x="1400" 
d="M602 -18q-116 0 -207 40t-150 119t-76 196.5t15 272.5l131 619q37 178 -116 178v27h520v-27q-67 0 -108.5 -39.5t-63.5 -138.5l-117 -549q-27 -118 -19.5 -218t41.5 -172.5t102 -113.5t163 -41q177 0 296.5 136t172.5 388l100 465q30 145 -18 214t-148 69v27h465v-27
q-89 0 -157.5 -68.5t-100.5 -214.5l-102 -483q-34 -164 -98.5 -292t-148 -207t-179 -119.5t-197.5 -40.5zM760 1686q7 75 66.5 127.5t134.5 52.5t121.5 -52.5t37.5 -127.5q-9 -76 -67 -128.5t-133 -52.5t-122 52.5t-38 128.5zM803 1686q-6 -56 30 -96t93 -40q55 0 99 40
t50 96t-29 95.5t-90 39.5q-57 0 -101 -39.5t-52 -95.5z" />
    <glyph glyph-name="uring" unicode="&#x16f;" horiz-adv-x="1136" 
d="M233 -20q-236 0 -145 372l109 428q21 87 -1 122.5t-90 37.5l3 29q105 4 185.5 22t170.5 70l16 -14l-45 -183l-114 -461q-77 -299 38 -299q53 0 119 68t133 188.5t133 298.5t117 385h217l-139 -665q-38 -176 -39 -190q-9 -70 21 -72q36 -5 88 78.5t92 238.5l18 -4
q-29 -124 -70 -215t-86.5 -139.5t-91.5 -68t-92 -11.5q-34 7 -55 27t-30.5 48.5t-9 72.5t7.5 90.5t20 111.5l71 332q-109 -325 -253.5 -511.5t-297.5 -186.5zM578 1352q7 75 66 127.5t134 52.5t122 -52.5t38 -127.5q-9 -76 -67.5 -128.5t-133.5 -52.5t-121.5 52.5
t-37.5 128.5zM621 1352q-6 -56 29.5 -95.5t92.5 -39.5q56 0 100 40t50 95q6 56 -29 95.5t-90 39.5q-57 0 -101 -39.5t-52 -95.5z" />
    <glyph glyph-name="Uhungarumlaut" unicode="&#x170;" horiz-adv-x="1400" 
d="M602 -18q-116 0 -207 40t-150 119t-76 196.5t15 272.5l131 619q37 178 -116 178v27h520v-27q-67 0 -108.5 -39.5t-63.5 -138.5l-117 -549q-27 -118 -19.5 -218t41.5 -172.5t102 -113.5t163 -41q177 0 296.5 136t172.5 388l100 465q30 145 -18 214t-148 69v27h465v-27
q-89 0 -157.5 -68.5t-100.5 -214.5l-102 -483q-34 -164 -98.5 -292t-148 -207t-179 -119.5t-197.5 -40.5zM913 1544l152 303l184 2h19l-310 -311l-14 4l-4 -4z" />
    <glyph glyph-name="uhungarumlaut" unicode="&#x171;" horiz-adv-x="1136" 
d="M233 -20q-236 0 -145 372l109 428q21 87 -1 122.5t-90 37.5l3 29q105 4 185.5 22t170.5 70l16 -14l-45 -183l-114 -461q-77 -299 38 -299q53 0 119 68t133 188.5t133 298.5t117 385h217l-139 -665q-38 -176 -39 -190q-9 -70 21 -72q36 -5 88 78.5t92 238.5l18 -4
q-29 -124 -70 -215t-86.5 -139.5t-91.5 -68t-92 -11.5q-34 7 -55 27t-30.5 48.5t-9 72.5t7.5 90.5t20 111.5l71 332q-109 -325 -253.5 -511.5t-297.5 -186.5zM664 1149l151 303l184 2h19l-309 -311l-15 4l-4 -4z" />
    <glyph glyph-name="Uogonek" unicode="&#x172;" horiz-adv-x="1400" 
d="M602 -18q-116 0 -207 40t-150 119t-76 196.5t15 272.5l131 619q37 178 -116 178v27h520v-27q-67 0 -108.5 -39.5t-63.5 -138.5l-117 -549q-27 -118 -19.5 -218t41.5 -172.5t102 -113.5t163 -41q177 0 296.5 136t172.5 388l100 465q30 145 -18 214t-148 69v27h465v-27
q-89 0 -157.5 -68.5t-100.5 -214.5l-102 -483q-58 -274 -191.5 -438t-308.5 -207q-126 -71 -147 -170q-14 -64 21.5 -98.5t84.5 -34.5q72 0 117 57l16 -6q-34 -76 -96.5 -121t-134.5 -45q-81 0 -127.5 53.5t-28.5 135.5q13 64 66 121.5t127 93.5h-21z" />
    <glyph glyph-name="uogonek" unicode="&#x173;" horiz-adv-x="1136" 
d="M233 -20q-236 0 -145 372l109 428q21 87 -1 122.5t-90 37.5l3 29q105 4 185.5 22t170.5 70l16 -14l-45 -183l-114 -461q-77 -299 38 -299q53 0 119 68t133 188.5t133 298.5t117 385h217l-139 -665q-38 -176 -39 -190q-9 -70 21 -72q36 -5 88 78.5t92 238.5l18 -4
q-45 -192 -114.5 -297.5t-149.5 -130.5q-136 -76 -156 -176q-14 -64 22 -98.5t85 -34.5q72 0 117 57l16 -6q-34 -76 -96.5 -121t-134.5 -45q-81 0 -127.5 53.5t-28.5 135.5q15 72 76.5 133t148.5 96q-41 9 -63.5 36.5t-26.5 75.5t2 102.5t23 135.5l71 332
q-109 -325 -253.5 -511.5t-297.5 -186.5z" />
    <glyph glyph-name="Wcircumflex" unicode="&#x174;" horiz-adv-x="2058" 
d="M1083 1229q-14 99 -53 138.5t-102 39.5v27h532v-27q-163 0 -137 -178l135 -920l461 842q51 91 45 148t-46 82.5t-110 25.5v27h484v-27q-84 0 -167.5 -61.5t-156.5 -192.5l-668 -1194h-26l-156 1040l-583 -1040h-29l-187 1270q-16 99 -56 138.5t-107 39.5v27h528v-27
q-151 0 -125 -178l131 -922l418 764zM891 1524l364 270h41l250 -270l-24 -21l-281 123l-332 -123z" />
    <glyph glyph-name="wcircumflex" unicode="&#x175;" horiz-adv-x="1599" 
d="M276 -20q-124 0 -168 99t-2 310l78 385q7 36 7 61t-5.5 41.5t-20 26t-32 13.5t-45.5 6v24q190 19 342 113l16 -12l-116 -615q-24 -120 -19 -191t26.5 -99.5t61.5 -28.5q52 0 115 61.5t125 170.5t119 276.5t92 361.5l10 55h207l-102 -581q-28 -156 14 -250t145 -94
q114 0 232 133.5t157 316.5q35 167 -10.5 243t-156.5 38q-61 -20 -107.5 10.5t-44.5 89.5q-2 51 31.5 83.5t93.5 31.5q80 -1 142.5 -52t93.5 -154.5t-3 -260.5q-35 -168 -125 -309.5t-206.5 -222t-229.5 -80.5q-143 0 -211 107t-32 308l34 197q-93 -281 -231 -446.5
t-275 -165.5zM627 1157l366 330h41l226 -330l-29 -20l-254 180l-334 -180z" />
    <glyph glyph-name="Ycircumflex" unicode="&#x176;" horiz-adv-x="1294" 
d="M358 1231q-27 99 -65 137.5t-98 38.5v27h532v-27q-155 0 -113 -176l144 -604l364 538q42 62 55 110t-2.5 76t-49 42t-83.5 14v27h433v-27q-134 0 -297 -242l-410 -598l-76 -362q-37 -178 117 -178v-27h-520v27q67 0 109 39.5t63 138.5l74 344zM592 1524l364 270h41
l250 -270l-24 -21l-281 123l-332 -123z" />
    <glyph glyph-name="ycircumflex" unicode="&#x177;" horiz-adv-x="1071" 
d="M352 -430q-107 0 -197 29t-144 73t-83.5 90.5t-29.5 85.5q0 34 16.5 59t41 39t63.5 23.5t71.5 13t77.5 5.5q-169 48 -72 420l101 376q22 89 1.5 124t-89.5 38l2 27q108 4 188.5 20.5t169.5 67.5l16 -14l-49 -183l-112 -432q-22 -78 -31.5 -136.5t-9 -94.5t10.5 -58
t24.5 -30.5t35.5 -8.5q53 0 119 68t133 188.5t133 298.5t117 385h217l-223 -1044q-43 -203 -183 -316.5t-315 -113.5zM100 -137q-3 -86 71.5 -173t174.5 -87q54 0 100.5 31.5t81 88t59.5 125t44 152.5l145 676q-107 -323 -252 -509.5t-297 -186.5h-4q-117 -19 -123 -117z
M381 1157l367 330h40l226 -330l-29 -20l-254 180l-334 -180z" />
    <glyph glyph-name="Ydieresis" unicode="&#x178;" horiz-adv-x="1294" 
d="M358 1231q-27 99 -65 137.5t-98 38.5v27h532v-27q-155 0 -113 -176l144 -604l364 538q42 62 55 110t-2.5 76t-49 42t-83.5 14v27h433v-27q-134 0 -297 -242l-410 -598l-76 -362q-37 -178 117 -178v-27h-520v27q67 0 109 39.5t63 138.5l74 344zM633 1694q9 58 49.5 94.5
t99.5 36.5q57 0 89 -37t24 -94q-8 -59 -50 -98.5t-100 -39.5q-57 0 -87.5 39t-24.5 99zM1018 1694q9 57 50.5 94t98.5 37q59 0 90 -36.5t23 -94.5q-8 -59 -49.5 -98.5t-100.5 -39.5q-57 0 -88.5 39.5t-23.5 98.5z" />
    <glyph glyph-name="Zacute" unicode="&#x179;" horiz-adv-x="1169" 
d="M-121 0l1127 1399h-312q-100 0 -184 -31t-148 -89t-111.5 -125.5t-88.5 -154.5l-25 5l168 430h1000l-1125 -1397h295q104 0 191.5 22t150.5 57t117.5 89.5t91 108.5t72.5 124l20 -6l-172 -432h-1067zM778 1534l123 266l273 2l-369 -282z" />
    <glyph glyph-name="zacute" unicode="&#x17a;" horiz-adv-x="894" 
d="M578 -18q-57 0 -104 32t-78.5 77.5t-59.5 92t-61 80t-70 35.5q-33 3 -48.5 -19.5t-2.5 -46.5q1 -5 28.5 -44t28.5 -74q2 -54 -32 -91.5t-91 -37.5q-49 0 -84 36t-35 87q0 43 30 88t110 112l606 555h-217q-56 0 -93 -2.5t-82.5 -12.5t-77.5 -29t-62.5 -53t-51.5 -83l-20 6
l118 348h699l8 -20l-762 -690h4q52 7 108 -15.5t97 -53t97 -57t108 -26.5q85 0 145.5 66.5t73.5 175.5h16q-2 -202 -66.5 -319t-178.5 -117zM520 1167l193 340l252 2l-420 -354z" />
    <glyph glyph-name="Zdotaccent" unicode="&#x17b;" horiz-adv-x="1169" 
d="M-121 0l1127 1399h-312q-100 0 -184 -31t-148 -89t-111.5 -125.5t-88.5 -154.5l-25 5l168 430h1000l-1125 -1397h295q104 0 191.5 22t150.5 57t117.5 89.5t91 108.5t72.5 124l20 -6l-172 -432h-1067zM647 1669q5 59 46 98t102 39t97.5 -39t31.5 -98q-3 -63 -44 -103
t-104 -40q-61 0 -96.5 40t-32.5 103z" />
    <glyph glyph-name="zdotaccent" unicode="&#x17c;" horiz-adv-x="894" 
d="M578 -18q-57 0 -104 32t-78.5 77.5t-59.5 92t-61 80t-70 35.5q-33 3 -48.5 -19.5t-2.5 -46.5q1 -5 28.5 -44t28.5 -74q2 -54 -32 -91.5t-91 -37.5q-49 0 -84 36t-35 87q0 43 30 88t110 112l606 555h-217q-56 0 -93 -2.5t-82.5 -12.5t-77.5 -29t-62.5 -53t-51.5 -83l-20 6
l118 348h699l8 -20l-762 -690h4q52 7 108 -15.5t97 -53t97 -57t108 -26.5q85 0 145.5 66.5t73.5 175.5h16q-2 -202 -66.5 -319t-178.5 -117zM471 1356q5 58 45.5 96.5t99.5 38.5q60 0 96 -39t31 -96q-3 -62 -43.5 -102t-101.5 -40q-60 0 -95 40t-32 102z" />
    <glyph glyph-name="Zcaron" unicode="&#x17d;" horiz-adv-x="1169" 
d="M-121 0l1127 1399h-312q-100 0 -184 -31t-148 -89t-111.5 -125.5t-88.5 -154.5l-25 5l168 430h1000l-1125 -1397h295q104 0 191.5 22t150.5 57t117.5 89.5t91 108.5t72.5 124l20 -6l-172 -432h-1067zM528 1794l27 21l281 -123l331 123l17 -21l-365 -270h-41z" />
    <glyph glyph-name="zcaron" unicode="&#x17e;" horiz-adv-x="894" 
d="M578 -18q-57 0 -104 32t-78.5 77.5t-59.5 92t-61 80t-70 35.5q-33 3 -48.5 -19.5t-2.5 -46.5q1 -5 28.5 -44t28.5 -74q2 -54 -32 -91.5t-91 -37.5q-49 0 -84 36t-35 87q0 43 30 88t110 112l606 555h-217q-56 0 -93 -2.5t-82.5 -12.5t-77.5 -29t-62.5 -53t-51.5 -83l-20 6
l118 348h699l8 -20l-762 -690h4q52 7 108 -15.5t97 -53t97 -57t108 -26.5q85 0 145.5 66.5t73.5 175.5h16q-2 -202 -66.5 -319t-178.5 -117zM328 1487l26 20l256 -178l332 178l19 -20l-367 -330h-41z" />
    <glyph glyph-name="uni018F" unicode="&#x18f;" horiz-adv-x="1398" 
d="M557 -12q-115 0 -210 40t-157.5 110.5t-87 173t-2.5 220.5l1002 5q17 60 22 88q23 105 23 204.5t-25 189t-73 156.5t-128.5 106.5t-185.5 39.5q-173 0 -321 -120t-236 -302l-22 6q84 232 296 392.5t439 160.5q95 0 176.5 -29t140 -81t100.5 -124t61.5 -156.5t18 -180
t-25.5 -193.5q-49 -208 -170.5 -370t-287 -249t-347.5 -87zM324 442q-11 -62 -12 -122t16.5 -114.5t47.5 -95.5t81.5 -65.5t117.5 -24.5q155 0 298.5 137t216.5 345l-713 -6q-17 0 -33 -15.5t-20 -38.5z" />
    <glyph glyph-name="uni0218" unicode="&#x218;" horiz-adv-x="1054" 
d="M438 -14q-38 0 -73 4.5t-68.5 14.5t-50.5 16t-49 20.5t-35 15.5q-30 11 -57.5 12.5t-53.5 -15.5t-35 -54h-28l104 549l29 -2q-10 -107 4 -200.5t50.5 -167.5t104.5 -117t160 -44q115 0 202 61t110 161q20 91 -17.5 178t-126.5 151l-202 148q-240 176 -185 401
q25 104 102 182t174.5 115.5t200.5 36.5q20 0 39.5 -1.5t35 -3.5t33.5 -6t29.5 -6.5t27.5 -8t24 -8.5t23 -9.5t19.5 -8.5t20 -9.5t17.5 -8.5q25 -9 48.5 -9t45.5 20t33 59h24l-110 -530l-29 2q25 223 -55 356t-224 139q-108 3 -183.5 -55.5t-96.5 -151.5q-19 -81 15.5 -160
t119.5 -143l201 -151q247 -185 190 -422q-18 -75 -58.5 -136t-92 -100.5t-113.5 -66t-123 -37.5t-121 -10zM256 -436q58 4 105 31.5t59 62.5q7 19 -1 37t-24 31t-32 31t-23 38t2 51q16 46 58.5 63t84.5 7q46 -13 64 -63.5t0 -108.5q-17 -63 -68 -110t-108 -68.5t-113 -24.5z
" />
    <glyph glyph-name="uni0219" unicode="&#x219;" horiz-adv-x="790" 
d="M322 -23q-68 -1 -134 19.5t-120 66.5t-72 109q-15 54 3.5 98.5t61.5 59.5q42 15 82 -3.5t54 -58.5q13 -37 -7.5 -93.5t-17.5 -82.5q5 -38 42.5 -62.5t98.5 -21.5q63 2 114.5 38t64.5 99q14 65 -26 132t-142 169q-110 110 -154 195.5t-25 181.5q22 105 114 171.5t224 70.5
q105 3 192 -42t109 -128q15 -50 -3 -95.5t-62 -60.5q-40 -15 -77 2.5t-52 57.5q-11 41 -3 64.5t19.5 52t7.5 47.5q-6 31 -38 52.5t-80 20.5q-66 -2 -114.5 -43t-57.5 -104q-8 -59 23 -114.5t120 -141.5q108 -105 145 -154q89 -118 66 -241q-24 -125 -124 -192t-232 -69z
M88 -442q58 4 105 31.5t59 62.5q7 19 -1 37t-24 31t-32 31t-23 38t2 51q16 46 58.5 63t84.5 7q46 -13 64 -63.5t0 -108.5q-17 -63 -68 -110t-108 -68.5t-113 -24.5z" />
    <glyph glyph-name="uni021A" unicode="&#x21a;" horiz-adv-x="1298" 
d="M297 0v27q67 0 109 39.5t63 138.5l254 1194h-113q-138 0 -258 -112t-186 -283l-27 4l154 426h1102l-29 -426l-29 -4q5 112 -22 199.5t-91 141.5t-157 54h-113l-252 -1194q-40 -178 115 -178v-27h-520zM305 -436q58 4 105 31.5t59 62.5q7 19 -1 37t-24 31t-32 31t-23 38
t2 51q16 46 59 63t85 7q46 -13 63.5 -63.5t-0.5 -108.5q-17 -63 -68 -110t-108 -68.5t-113 -24.5z" />
    <glyph glyph-name="uni021B" unicode="&#x21b;" horiz-adv-x="710" 
d="M268 -20q-122 0 -167 89t-13 242l135 645h-133l4 29q130 9 235 89.5t158 217.5h29l-53 -254h309l-53 -82h-277l-129 -620q-50 -234 68 -240q65 -3 140.5 82t133.5 223l21 -8q-62 -179 -177 -296t-231 -117zM33 -436q58 4 105 31.5t59 62.5q7 19 -1 37t-24 31t-32 31
t-23 38t2 51q16 46 58.5 63t84.5 7q46 -13 64 -63.5t0 -108.5q-17 -63 -68 -110t-108 -68.5t-113 -24.5z" />
    <glyph glyph-name="uni0237" unicode="&#x237;" horiz-adv-x="485" 
d="M-266 -383q124 7 208.5 126.5t127.5 324.5l153 704q20 87 -2.5 122.5t-91.5 35.5v26q105 7 185.5 28.5t168.5 76.5l17 -14l-39 -185l-154 -725q-28 -133 -85.5 -237.5t-134 -170t-166 -100.5t-187.5 -39v27z" />
    <glyph glyph-name="uni0259" unicode="&#x259;" horiz-adv-x="935" 
d="M537 1057q174 0 271 -132.5t71 -344.5q-14 -123 -69 -235t-135.5 -191.5t-183.5 -126.5t-210 -47q-104 0 -168.5 49t-61.5 131q3 94 89 172.5t222.5 124.5t292.5 53q26 194 -39 308t-198 114q-120 0 -221 -113t-150 -307l-22 6q51 234 195 386.5t317 152.5zM225 113
q3 -46 28 -73.5t66 -27.5q107 0 205 138.5t127 330.5q0 4 2 8q-88 -9 -162 -38.5t-122.5 -69t-82.5 -87.5t-48 -94t-13 -87z" />
    <glyph glyph-name="circumflex" unicode="&#x2c6;" horiz-adv-x="954" 
d="M14 1122l-16 21l367 330h41l225 -330l-29 -21l-254 181z" />
    <glyph glyph-name="caron" unicode="&#x2c7;" horiz-adv-x="958" 
d="M289 1143l-226 330l27 20l256 -178l332 178l18 -20l-366 -330h-41z" />
    <glyph glyph-name="breve" unicode="&#x2d8;" horiz-adv-x="1251" 
d="M494 1194q-122 0 -176 84.5t-23 228.5l31 4q-5 -72 46.5 -122t151.5 -50q99 0 173 50t100 122l24 -4q-28 -136 -120 -224.5t-207 -88.5z" />
    <glyph glyph-name="dotaccent" unicode="&#x2d9;" horiz-adv-x="1251" 
d="M236 1208q-60 0 -95 40t-32 102q5 58 45.5 95.5t99.5 37.5q60 0 96 -38t31 -95q-3 -62 -43.5 -102t-101.5 -40z" />
    <glyph glyph-name="ring" unicode="&#x2da;" horiz-adv-x="1251" 
d="M459 1157q-75 0 -122 52t-38 128q7 75 66.5 128t134.5 53t121.5 -53t37.5 -128q-9 -76 -67 -128t-133 -52zM342 1337q-6 -56 30 -95.5t93 -39.5q55 0 99 39.5t50 95.5t-28.5 96t-89.5 40q-57 0 -101.5 -40t-52.5 -96z" />
    <glyph glyph-name="ogonek" unicode="&#x2db;" horiz-adv-x="1251" 
d="M815 -422q-81 0 -127.5 53.5t-28.5 135.5q18 88 105.5 158.5t198.5 94.5l2 -18q-138 -74 -158 -176q-14 -64 21.5 -98.5t84.5 -34.5q72 0 117 57l17 -6q-34 -76 -97 -121t-135 -45z" />
    <glyph glyph-name="tilde" unicode="&#x2dc;" horiz-adv-x="1251" 
d="M690 1184q-38 1 -74 19t-59.5 39.5t-55.5 39.5t-65 18q-52 1 -90.5 -34t-56.5 -80l-29 2q27 102 89 168t153 65q37 -1 70.5 -19t55 -39t55 -38.5t71.5 -17.5q89 -2 141 108l27 -2q-25 -99 -82.5 -164.5t-149.5 -64.5z" />
    <glyph glyph-name="hungarumlaut" unicode="&#x2dd;" horiz-adv-x="1251" 
d="M608 1128l-26 7l151 303l185 2h18l-309 -312l-15 5z" />
    <glyph glyph-name="gravecomb" unicode="&#x300;" 
d="M670 1141l-381 354l252 -2l155 -340z" />
    <glyph glyph-name="acutecomb" unicode="&#x301;" 
d="M657 1141l-24 12l192 340l252 2z" />
    <glyph glyph-name="uni0302" unicode="&#x302;" 
d="M14 1122l-16 21l367 330h41l225 -330l-29 -21l-254 181z" />
    <glyph glyph-name="tildecomb" unicode="&#x303;" 
d="M690 1184q-38 1 -74 19t-59.5 39.5t-55.5 39.5t-65 18q-52 1 -90.5 -34t-56.5 -80l-29 2q27 102 89 168t153 65q37 -1 70.5 -19t55 -39t55 -38.5t71.5 -17.5q89 -2 141 108l27 -2q-25 -99 -82.5 -164.5t-149.5 -64.5z" />
    <glyph glyph-name="uni0304" unicode="&#x304;" 
d="M246 1268l22 106h584l-23 -106h-583z" />
    <glyph glyph-name="uni0306" unicode="&#x306;" 
d="M494 1194q-122 0 -176 84.5t-23 228.5l31 4q-5 -72 46.5 -122t151.5 -50q99 0 173 50t100 122l24 -4q-28 -136 -120 -224.5t-207 -88.5z" />
    <glyph glyph-name="uni0307" unicode="&#x307;" 
d="M236 1204q-61 0 -97 40.5t-33 103.5q5 59 46 98t102 39t97.5 -39t31.5 -98q-3 -63 -43.5 -103.5t-103.5 -40.5z" />
    <glyph glyph-name="uni0308" unicode="&#x308;" 
d="M498 1208q-57 0 -89 39.5t-24 98.5q9 57 51 94t99 37q59 0 89.5 -36.5t22.5 -94.5q-8 -60 -49 -99t-100 -39zM0 1346q9 58 50 94.5t100 36.5q57 0 88.5 -37t23.5 -94q-8 -59 -49.5 -98.5t-99.5 -39.5q-57 0 -88 39t-25 99z" />
    <glyph glyph-name="uni030A" unicode="&#x30a;" 
d="M459 1157q-75 0 -122 52t-38 128q7 75 66.5 128t134.5 53t121.5 -53t37.5 -128q-9 -76 -67 -128t-133 -52zM342 1337q-6 -56 30 -95.5t93 -39.5q55 0 99 39.5t50 95.5t-28.5 96t-89.5 40q-57 0 -101.5 -40t-52.5 -96z" />
    <glyph glyph-name="uni030B" unicode="&#x30b;" 
d="M608 1110l-26 6l141 275l184 2h21l-301 -283l-15 4z" />
    <glyph glyph-name="uni030C" unicode="&#x30c;" 
d="M289 1143l-226 330l27 20l256 -178l332 178l18 -20l-366 -330h-41z" />
    <glyph glyph-name="uni0312" unicode="&#x312;" 
d="M571 1583q-63 -4 -115 -37.5t-67 -75.5q-7 -22 0 -41t22 -32t29.5 -32t21.5 -41t-1 -58q-12 -50 -53.5 -73t-88.5 -11q-57 18 -76 74t3 118q30 108 125 169.5t196 64.5z" />
    <glyph glyph-name="uni0326" unicode="&#x326;" 
d="M-41 -436q58 4 105 31.5t59 62.5q7 19 -1 37t-24 31t-32 31t-23 38t2 51q16 46 58.5 63t84.5 7q46 -13 64 -63.5t0 -108.5q-17 -63 -68 -110t-108 -68.5t-113 -24.5z" />
    <glyph glyph-name="uni0327" unicode="&#x327;" 
d="M567 -424q-75 -9 -129 13.5t-67 74.5q-9 37 6 64t45 36q28 8 53.5 -5t32.5 -40q6 -26 -3 -56t-7 -40q6 -32 43 -26q48 6 90.5 63t36.5 113q-8 63 -67 79.5t-134 -24.5l-8 22l348 211l8 -22l-194 -119q98 3 146 -50.5t28 -123.5q-19 -71 -86 -116.5t-142 -53.5z" />
    <glyph glyph-name="uni0328" unicode="&#x328;" 
d="M815 -422q-81 0 -127.5 53.5t-28.5 135.5q18 88 105.5 158.5t198.5 94.5l2 -18q-138 -74 -158 -176q-14 -64 21.5 -98.5t84.5 -34.5q72 0 117 57l17 -6q-34 -76 -97 -121t-135 -45z" />
    <glyph glyph-name="uni0E3F" unicode="&#xe3f;" horiz-adv-x="1224" 
d="M473 -221l47 221h-155l-43 -201l-39 -20l47 221h-391v27q67 0 108.5 39.5t63.5 138.5l217 1024q37 178 -117 178v27h424l41 192l39 21l-45 -213h155l41 192l39 21l-45 -213h6q85 0 150.5 -20.5t103 -54.5t61 -79.5t24.5 -94.5t-7 -100q-25 -113 -129.5 -198t-282.5 -107
q93 -7 164 -32.5t114 -63.5t68.5 -87.5t27.5 -105.5t-9 -116q-35 -164 -186 -269.5t-385 -105.5h-25l-43 -201zM319 102q-7 -29 10.5 -48t63.5 -19h131q147 0 249.5 95t135.5 253q20 101 -1.5 182.5t-90 132t-176.5 50.5h-184zM465 784h194q112 0 193.5 93t105.5 215
q14 56 9 111t-22 98.5t-60.5 70.5t-106.5 27h-182z" />
    <glyph glyph-name="uni1E20" unicode="&#x1e20;" horiz-adv-x="1513" 
d="M735 -23q-161 0 -292 57.5t-213 161t-113.5 248t6.5 318.5q43 201 168.5 359.5t313 247.5t405.5 89q54 0 109.5 -10.5t85.5 -21t72 -28t46 -18.5q55 -21 88 -16q57 8 82 96h31l-78 -551h-29q-1 141 -52 259t-143 188.5t-206 70.5q-107 0 -212.5 -55.5t-189 -147.5
t-145 -211.5t-86.5 -246.5q-21 -123 -18 -234.5t35 -206.5t83 -164.5t126 -109t163 -39.5q55 0 106.5 18t100 55.5t86 103.5t55.5 153l19 92q20 97 -27.5 137.5t-144.5 40.5v27l526 -2v-27q-49 0 -81.5 -39.5t-53.5 -138.5l-94 -444l-23 -2l-53 127q-214 -136 -453 -136z
M743 1587l23 107h584l-23 -107h-584z" />
    <glyph glyph-name="uni1E21" unicode="&#x1e21;" horiz-adv-x="1054" 
d="M328 -430q-103 0 -190 29.5t-139 73.5t-81 91.5t-29 88.5q0 30 12 52.5t36.5 37t51 24.5t65.5 15t69.5 7t73.5 3q-100 39 -136.5 168t-1.5 295q56 259 230.5 429.5t384.5 170.5q119 0 211 -82l153 102l23 -14l-232 -1061q-44 -203 -183 -316.5t-318 -113.5zM88 -135
q-3 -87 69.5 -174.5t164.5 -87.5q204 0 292 397l109 479q-52 -133 -121 -243t-156 -182.5t-170 -73.5q-97 -3 -141 -31t-47 -84zM303 573q-36 -115 -46 -207.5t4.5 -148.5t43.5 -85.5t70 -29.5q67 0 151 97.5t153 248.5t97 300q23 124 -2 198t-100 74q-92 0 -196.5 -115
t-174.5 -332zM428 1278l23 106h583l-22 -106h-584z" />
    <glyph glyph-name="Wgrave" unicode="&#x1e80;" horiz-adv-x="2058" 
d="M1083 1229q-14 99 -53 138.5t-102 39.5v27h532v-27q-163 0 -137 -178l135 -920l461 842q51 91 45 148t-46 82.5t-110 25.5v27h484v-27q-84 0 -167.5 -61.5t-156.5 -192.5l-668 -1194h-26l-156 1040l-583 -1040h-29l-187 1270q-16 99 -56 138.5t-107 39.5v27h528v-27
q-151 0 -125 -178l131 -922l418 764zM881 1802l276 -2l121 -266l-27 -14z" />
    <glyph glyph-name="wgrave" unicode="&#x1e81;" horiz-adv-x="1599" 
d="M276 -20q-124 0 -168 99t-2 310l78 385q7 36 7 61t-5.5 41.5t-20 26t-32 13.5t-45.5 6v24q190 19 342 113l16 -12l-116 -615q-24 -120 -19 -191t26.5 -99.5t61.5 -28.5q52 0 115 61.5t125 170.5t119 276.5t92 361.5l10 55h207l-102 -581q-28 -156 14 -250t145 -94
q114 0 232 133.5t157 316.5q35 167 -10.5 243t-156.5 38q-61 -20 -107.5 10.5t-44.5 89.5q-2 51 31.5 83.5t93.5 31.5q80 -1 142.5 -52t93.5 -154.5t-3 -260.5q-35 -168 -125 -309.5t-206.5 -222t-229.5 -80.5q-143 0 -211 107t-32 308l34 197q-93 -281 -231 -446.5
t-275 -165.5zM643 1509l252 -2l156 -340l-27 -12z" />
    <glyph glyph-name="Wacute" unicode="&#x1e82;" horiz-adv-x="2058" 
d="M1083 1229q-14 99 -53 138.5t-102 39.5v27h532v-27q-163 0 -137 -178l135 -920l461 842q51 91 45 148t-46 82.5t-110 25.5v27h484v-27q-84 0 -167.5 -61.5t-156.5 -192.5l-668 -1194h-26l-156 1040l-583 -1040h-29l-187 1270q-16 99 -56 138.5t-107 39.5v27h528v-27
q-151 0 -125 -178l131 -922l418 764zM1200 1534l123 266l272 2l-368 -282z" />
    <glyph glyph-name="wacute" unicode="&#x1e83;" horiz-adv-x="1599" 
d="M276 -20q-124 0 -168 99t-2 310l78 385q7 36 7 61t-5.5 41.5t-20 26t-32 13.5t-45.5 6v24q190 19 342 113l16 -12l-116 -615q-24 -120 -19 -191t26.5 -99.5t61.5 -28.5q52 0 115 61.5t125 170.5t119 276.5t92 361.5l10 55h207l-102 -581q-28 -156 14 -250t145 -94
q114 0 232 133.5t157 316.5q35 167 -10.5 243t-156.5 38q-61 -20 -107.5 10.5t-44.5 89.5q-2 51 31.5 83.5t93.5 31.5q80 -1 142.5 -52t93.5 -154.5t-3 -260.5q-35 -168 -125 -309.5t-206.5 -222t-229.5 -80.5q-143 0 -211 107t-32 308l34 197q-93 -281 -231 -446.5
t-275 -165.5zM889 1167l192 340l252 2l-420 -354z" />
    <glyph glyph-name="Wdieresis" unicode="&#x1e84;" horiz-adv-x="2058" 
d="M1083 1229q-14 99 -53 138.5t-102 39.5v27h532v-27q-163 0 -137 -178l135 -920l461 842q51 91 45 148t-46 82.5t-110 25.5v27h484v-27q-84 0 -167.5 -61.5t-156.5 -192.5l-668 -1194h-26l-156 1040l-583 -1040h-29l-187 1270q-16 99 -56 138.5t-107 39.5v27h528v-27
q-151 0 -125 -178l131 -922l418 764zM934 1694q9 58 49.5 94.5t99.5 36.5q57 0 89 -37t24 -94q-8 -59 -49.5 -98.5t-99.5 -39.5q-57 0 -88 39t-25 99zM1319 1694q9 57 50.5 94t98.5 37q59 0 90 -36.5t23 -94.5q-8 -60 -49 -99t-100 -39q-57 0 -89 39.5t-24 98.5z" />
    <glyph glyph-name="wdieresis" unicode="&#x1e85;" horiz-adv-x="1599" 
d="M276 -20q-124 0 -168 99t-2 310l78 385q7 36 7 61t-5.5 41.5t-20 26t-32 13.5t-45.5 6v24q190 19 342 113l16 -12l-116 -615q-24 -120 -19 -191t26.5 -99.5t61.5 -28.5q52 0 115 61.5t125 170.5t119 276.5t92 361.5l10 55h207l-102 -581q-28 -156 14 -250t145 -94
q114 0 232 133.5t157 316.5q35 167 -10.5 243t-156.5 38q-61 -20 -107.5 10.5t-44.5 89.5q-2 51 31.5 83.5t93.5 31.5q80 -1 142.5 -52t93.5 -154.5t-3 -260.5q-35 -168 -125 -309.5t-206.5 -222t-229.5 -80.5q-143 0 -211 107t-32 308l34 197q-93 -281 -231 -446.5
t-275 -165.5zM662 1360q9 58 49.5 94.5t99.5 36.5q57 0 89 -37t24 -94q-8 -59 -50 -98t-100 -39q-57 0 -87.5 38.5t-24.5 98.5zM1047 1360q9 57 50.5 94t98.5 37q59 0 90 -36.5t23 -94.5q-8 -59 -49.5 -98t-100.5 -39q-57 0 -88.5 39t-23.5 98z" />
    <glyph glyph-name="uni1E9E" unicode="&#x1e9e;" horiz-adv-x="1542" 
d="M850 -14q-168 0 -269 86t-96 217q3 64 37.5 100.5t87.5 36.5q51 0 82 -34t31 -83q0 -29 -25.5 -73t-25.5 -74q0 -70 49 -109t127 -39q131 0 242.5 121t152.5 314q22 123 3 218.5t-86 154t-169 59.5q-105 0 -184 -56l-23 21l457 553h-481q-28 0 -44.5 -1t-44.5 -7.5
t-45.5 -19.5t-35 -39t-25.5 -64v4l-225 -1067q-37 -178 115 -178v-27h-516v27q66 0 107.5 39.5t62.5 138.5l219 1024q37 178 -117 178v27h1354l-9 -39l-692 -502q92 47 195 47q105 0 189.5 -33t139.5 -95.5t75.5 -151.5t-3.5 -201q-23 -112 -85.5 -203.5t-147 -149.5
t-182 -89t-195.5 -31z" />
    <glyph glyph-name="uni1EBC" unicode="&#x1ebc;" horiz-adv-x="1224" 
d="M-61 0v27q67 0 108.5 39.5t63.5 138.5l217 1024q37 178 -117 178v27h1024l-33 -424l-24 -2q8 199 -63 295t-232 96h-285l-139 -651h227q103 0 160.5 50.5t85.5 180.5h26l-110 -524h-27q27 139 -7.5 198.5t-137.5 59.5h-223l-121 -568q-13 -60 4 -85t80 -25h207
q164 0 297.5 103t222.5 292l22 -4l-164 -426h-1062zM496 1526q27 103 88.5 168.5t152.5 64.5q37 -1 70.5 -19t55 -39t55 -38.5t71.5 -17.5q89 -2 141 108l27 -2q-25 -99 -82 -164.5t-149 -64.5q-38 1 -74 19t-59.5 39.5t-55.5 39.5t-65 18q-52 1 -91 -34t-57 -80z" />
    <glyph glyph-name="uni1EBD" unicode="&#x1ebd;" horiz-adv-x="935" 
d="M399 -18q-174 0 -271 132.5t-71 344.5q14 123 69 235t135.5 191.5t183.5 126.5t210 47q104 0 168.5 -49t61.5 -131q-3 -94 -89 -173t-222.5 -125t-292.5 -53q-26 -194 39 -308t198 -114q120 0 221 113t150 307l22 -6q-51 -234 -195 -386t-317 -152zM283 549
q88 9 162 38.5t122.5 69.5t82.5 88t48 94t13 87q-3 46 -28.5 73t-66.5 27q-107 0 -204.5 -138.5t-126.5 -330.5q0 -4 -2 -8zM346 1204q27 103 89 169t153 65q37 -1 70.5 -19t55 -39.5t55 -39t71.5 -17.5q89 -2 141 109l27 -2q-25 -99 -82.5 -165t-149.5 -65q-38 1 -74 19.5
t-59.5 40t-55.5 39.5t-65 18q-52 1 -90.5 -34.5t-56.5 -80.5z" />
    <glyph glyph-name="Ygrave" unicode="&#x1ef2;" horiz-adv-x="1294" 
d="M358 1231q-27 99 -65 137.5t-98 38.5v27h532v-27q-155 0 -113 -176l144 -604l364 538q42 62 55 110t-2.5 76t-49 42t-83.5 14v27h433v-27q-134 0 -297 -242l-410 -598l-76 -362q-37 -178 117 -178v-27h-520v27q67 0 109 39.5t63 138.5l74 344zM580 1802l276 -2l121 -266
l-27 -14z" />
    <glyph glyph-name="ygrave" unicode="&#x1ef3;" horiz-adv-x="1071" 
d="M352 -430q-107 0 -197 29t-144 73t-83.5 90.5t-29.5 85.5q0 34 16.5 59t41 39t63.5 23.5t71.5 13t77.5 5.5q-169 48 -72 420l101 376q22 89 1.5 124t-89.5 38l2 27q108 4 188.5 20.5t169.5 67.5l16 -14l-49 -183l-112 -432q-22 -78 -31.5 -136.5t-9 -94.5t10.5 -58
t24.5 -30.5t35.5 -8.5q53 0 119 68t133 188.5t133 298.5t117 385h217l-223 -1044q-43 -203 -183 -316.5t-315 -113.5zM100 -137q-3 -86 71.5 -173t174.5 -87q54 0 100.5 31.5t81 88t59.5 125t44 152.5l145 676q-107 -323 -252 -509.5t-297 -186.5h-4q-117 -19 -123 -117z
M395 1509l252 -2l156 -340l-27 -12z" />
    <glyph glyph-name="uni1EF8" unicode="&#x1ef8;" horiz-adv-x="1294" 
d="M358 1231q-27 99 -65 137.5t-98 38.5v27h532v-27q-155 0 -113 -176l144 -604l364 538q42 62 55 110t-2.5 76t-49 42t-83.5 14v27h433v-27q-134 0 -297 -242l-410 -598l-76 -362q-37 -178 117 -178v-27h-520v27q67 0 109 39.5t63 138.5l74 344zM616 1526q27 102 89 168
t153 65q37 -1 70.5 -19t55 -39t55 -38.5t71.5 -17.5q89 -2 141 108l27 -2q-25 -99 -82 -164.5t-149 -64.5q-38 1 -74 19t-59.5 39.5t-55.5 39.5t-65 18q-52 1 -91 -34t-57 -80z" />
    <glyph glyph-name="uni1EF9" unicode="&#x1ef9;" horiz-adv-x="1071" 
d="M352 -430q-107 0 -197 29t-144 73t-83.5 90.5t-29.5 85.5q0 34 16.5 59t41 39t63.5 23.5t71.5 13t77.5 5.5q-169 48 -72 420l101 376q22 89 1.5 124t-89.5 38l2 27q108 4 188.5 20.5t169.5 67.5l16 -14l-49 -183l-112 -432q-22 -78 -31.5 -136.5t-9 -94.5t10.5 -58
t24.5 -30.5t35.5 -8.5q53 0 119 68t133 188.5t133 298.5t117 385h217l-223 -1044q-43 -203 -183 -316.5t-315 -113.5zM100 -137q-3 -86 71.5 -173t174.5 -87q54 0 100.5 31.5t81 88t59.5 125t44 152.5l145 676q-107 -323 -252 -509.5t-297 -186.5h-4q-117 -19 -123 -117z
M397 1202q27 103 89 169t153 65q37 -1 70.5 -19t55 -39.5t55 -39t71.5 -17.5q89 -2 141 109l27 -3q-25 -99 -82.5 -164.5t-149.5 -64.5q-38 1 -74 19.5t-59.5 40t-55.5 39.5t-65 18q-52 1 -90.5 -34.5t-56.5 -80.5z" />
    <glyph glyph-name="endash" unicode="&#x2013;" horiz-adv-x="1292" 
d="M131 530l4 35h1024l-4 -35h-1024z" />
    <glyph glyph-name="emdash" unicode="&#x2014;" horiz-adv-x="1826" 
d="M90 530l4 35h1641l-4 -35h-1641z" />
    <glyph glyph-name="quoteleft" unicode="&#x2018;" horiz-adv-x="415" 
d="M373 1161q70 -1 129.5 29t81.5 76q11 23 5 44.5t-21 37.5t-28.5 38t-19 47t7.5 64q20 53 67.5 73t96.5 1q59 -25 74.5 -88.5t-14.5 -128.5q-31 -78 -98 -131t-138.5 -72.5t-140.5 -15.5z" />
    <glyph glyph-name="quoteright" unicode="&#x2019;" horiz-adv-x="417" 
d="M176 1077q68 12 122.5 53t66.5 89q5 25 -5 44t-28 34t-35.5 31.5t-27 44t-3.5 63.5q9 56 52 84.5t96 19.5q62 -15 88 -72.5t10 -130.5q-17 -83 -72.5 -147.5t-122 -97t-135.5 -41.5z" />
    <glyph glyph-name="quotesinglbase" unicode="&#x201a;" horiz-adv-x="440" 
d="M-96 -203q70 6 126.5 42.5t71.5 82.5q8 24 0 45t-24 35.5t-31.5 35t-23 45t1.5 64.5q13 54 57.5 79.5t95.5 13.5q63 -21 84.5 -82t-2.5 -129q-23 -81 -84 -141t-129.5 -87t-138.5 -30z" />
    <glyph glyph-name="quotedblleft" unicode="&#x201c;" horiz-adv-x="729" 
d="M872 1559q-69 -12 -122 -54t-64 -90q-5 -25 5 -44t27.5 -33.5t35 -30.5t28 -43.5t4.5 -63.5q-7 -56 -49 -86t-94 -22q-63 14 -90 71t-14 131q23 122 119.5 199t205.5 92zM223 1292q22 122 119.5 200t206.5 93l6 -26q-69 -13 -121 -54.5t-63 -91.5q-5 -25 5 -44
t27.5 -33.5t35 -30.5t28 -43.5t4.5 -63.5q-7 -56 -49 -85t-96 -21q-64 13 -90.5 69.5t-12.5 130.5z" />
    <glyph glyph-name="quotedblright" unicode="&#x201d;" horiz-adv-x="727" 
d="M176 1073q69 13 121 54.5t63 91.5q5 25 -5 44t-27.5 33.5t-35 30.5t-28 43.5t-4.5 63.5q7 56 50.5 85.5t95.5 20.5q63 -13 89.5 -70t12.5 -131q-15 -83 -70 -148.5t-121 -99t-135 -44.5zM492 1075q68 12 120.5 54t63.5 90q5 25 -5 44.5t-27.5 34t-35 30.5t-28 43.5
t-5.5 64.5q7 55 50 84.5t96 21.5q63 -13 89.5 -71t12.5 -132q-22 -121 -119 -198t-206 -92z" />
    <glyph glyph-name="quotedblbase" unicode="&#x201e;" horiz-adv-x="743" 
d="M-96 -203q70 6 126.5 42.5t71.5 82.5q8 24 0 45t-24 35.5t-31.5 35t-23 45t1.5 64.5q13 54 57.5 79.5t95.5 13.5q63 -21 84.5 -82t-2.5 -129q-23 -81 -84 -141t-129.5 -87t-138.5 -30zM207 -203q69 6 126 42t75 83q8 24 -0.5 45t-25 35.5t-32.5 35t-23.5 45t1.5 64.5
q13 54 58 79.5t97 13.5q62 -21 83.5 -82t-1.5 -129q-34 -119 -138.5 -186t-215.5 -72z" />
    <glyph glyph-name="dagger" unicode="&#x2020;" horiz-adv-x="770" 
d="M270 635q9 104 30.5 166t68.5 152q8 14 12 22l59 121q-37 -8 -113 -42t-108 -36q-56 -4 -80 26t-16 74q10 44 48 76.5t95 26.5q33 -2 94 -39.5t91 -44.5q5 41 -17 119.5t-18 113.5q10 59 49 91t78 32q41 0 66 -31t7 -92q-9 -34 -60.5 -112t-68.5 -121q31 8 108 45t114 39
q58 6 81.5 -26.5t14.5 -76.5q-10 -44 -47 -74t-92 -26q-30 3 -92.5 36t-96.5 42l6 -121q7 -62 9 -82.5t1.5 -66.5t-11 -88.5t-31.5 -102.5l-209 -635h-31z" />
    <glyph glyph-name="daggerdbl" unicode="&#x2021;" horiz-adv-x="770" 
d="M272 565q-17 150 64 301l113 232q-36 -9 -113.5 -43t-110.5 -37q-56 -4 -80 26t-14 74q9 44 46.5 76.5t94.5 26.5q33 -2 93 -38.5t90 -43.5q1 40 -17.5 117t-13.5 114q7 59 46 91t79 32q41 0 66.5 -31t7.5 -92q-9 -34 -60.5 -112t-68.5 -121q31 7 107.5 44.5t113.5 39.5
q58 6 81.5 -26.5t14.5 -76.5q-8 -43 -46 -73.5t-93 -26.5q-30 2 -91.5 36t-95.5 42l13 -230q16 -147 -64 -301l-115 -233q38 9 116 43t110 37q56 4 80 -26.5t14 -74.5q-9 -43 -46.5 -75.5t-94.5 -26.5q-33 2 -94 39.5t-91 44.5q-1 -44 18 -123.5t15 -112.5q-8 -56 -45.5 -88
t-79.5 -32q-41 0 -67.5 31.5t-10.5 90.5q12 40 64 116.5t69 117.5q-31 -8 -107.5 -45t-113.5 -39q-58 -6 -81.5 26t-14.5 76q8 43 46 74t93 27q30 -2 92.5 -36.5t96.5 -43.5z" />
    <glyph glyph-name="bullet" unicode="&#x2022;" horiz-adv-x="690" 
d="M322 317q-107 0 -168 71t-50 173q12 109 87 176.5t184 67.5q104 0 162.5 -67.5t48.5 -176.5q-11 -101 -86 -172.5t-178 -71.5z" />
    <glyph glyph-name="ellipsis" unicode="&#x2026;" horiz-adv-x="1107" 
d="M457 -16q-61 0 -96 40.5t-29 102.5q5 59 46.5 98t102.5 39q62 0 97 -38.5t30 -98.5q-6 -62 -48 -102.5t-103 -40.5zM-4 127q5 59 46.5 98t102.5 39q62 0 97 -38.5t30 -98.5q-6 -62 -48 -102.5t-103 -40.5t-96 40.5t-29 102.5zM670 127q5 59 46.5 98t102.5 39
q62 0 97 -38.5t30 -98.5q-6 -62 -48 -102.5t-103 -40.5t-96 40.5t-29 102.5z" />
    <glyph glyph-name="perthousand" unicode="&#x2030;" horiz-adv-x="2256" 
d="M147 -12l-32 22l1304 1430l29 -23zM203 1118q30 142 143.5 230t245.5 88q131 0 206.5 -93.5t45.5 -234.5q-30 -143 -142 -232.5t-241 -89.5q-137 0 -212.5 95.5t-45.5 236.5zM352 1079q-19 -124 16.5 -195t114.5 -65q72 4 132.5 102.5t80.5 227.5q18 119 -14.5 188
t-110.5 66q-80 -3 -138 -99t-81 -225zM725 334q30 142 143 229.5t246 87.5q132 0 207.5 -93t44.5 -234q-30 -143 -142 -232.5t-243 -89.5q-136 0 -210.5 96t-45.5 236zM877 295q-19 -124 15.5 -195t113.5 -65q72 4 132.5 102.5t80.5 227.5q18 119 -14.5 187.5t-110.5 65.5
q-55 -2 -101.5 -51.5t-74.5 -120t-41 -151.5zM1436 334q31 142 145 229.5t246 87.5q131 0 206.5 -93t45.5 -234q-30 -143 -142.5 -232.5t-242.5 -89.5q-136 0 -211.5 96t-46.5 236zM1587 295q-19 -125 15.5 -195.5t115.5 -64.5q71 4 131 103t80 227q19 118 -13.5 187
t-109.5 66q-82 -3 -140 -99t-79 -224z" />
    <glyph glyph-name="guilsinglleft" unicode="&#x2039;" horiz-adv-x="550" 
d="M362 76l-288 452l475 426l20 -14l-315 -414l135 -438z" />
    <glyph glyph-name="guilsinglright" unicode="&#x203a;" horiz-adv-x="550" 
d="M0 76l-18 12l321 438l-141 414l28 14l291 -426z" />
    <glyph glyph-name="fraction" unicode="&#x2044;" horiz-adv-x="253" 
d="M-477 -14l-31 20l1239 1436l27 -21z" />
    <glyph glyph-name="Euro" unicode="&#x20ac;" horiz-adv-x="1374" 
d="M635 -25q-157 0 -272.5 80t-169 224t-33.5 327h-135l26 35h113q12 74 22 111q2 10 23 75h-139l28 35h123q98 267 297.5 432t427.5 166q28 0 54 -2.5t45.5 -5.5t41 -10t34 -11.5t30.5 -14.5t24 -13.5t22 -13.5t17 -11q44 -28 78 -28q25 0 48.5 21.5t37.5 64.5h25
l-113 -533h-24q16 147 -15 267.5t-105.5 191t-178.5 70.5q-118 0 -224.5 -76t-183.5 -203.5t-123 -290.5h459l-29 -35h-438q-2 -7 -5 -22.5t-5 -22.5q-19 -92 -21 -141h451l-29 -35h-424q-7 -225 100 -350.5t277 -120.5q140 3 259 105t175 252h27q-31 -102 -87 -194
t-131.5 -164.5t-174 -115.5t-205.5 -43z" />
    <glyph glyph-name="uni20B4" unicode="&#x20b4;" horiz-adv-x="1198" 
d="M401 -16q-66 -1 -126.5 13.5t-112 43.5t-85.5 73t-47 103t3 133q17 81 60.5 149.5t94.5 114.5h-133l27 35h952l-26 -35h-428q-5 -3 -45 -25.5t-53.5 -30.5t-52.5 -31.5t-57.5 -38t-51 -39t-50.5 -45t-39 -46t-33 -52t-18 -54.5q-20 -95 37.5 -164.5t183.5 -69.5
q94 1 179.5 46t152 122.5t117.5 168t88 194.5l29 -2l-127 -543l-29 2q7 53 -31.5 65t-83.5 -12l-42 -17q-41 -16 -58 -21.5t-55 -16.5t-72 -15.5t-68 -4.5zM94 811l29 35h391q57 32 90 50.5t93.5 58t96 71.5t68.5 75.5t41 84.5q21 97 -31 164.5t-163 64.5q-137 -5 -269 -142
t-207 -355h-28l108 520l27 -2q-7 -43 25 -60t69 0q5 2 43 18t52 21t47.5 15t65 13.5t69.5 4.5q181 3 285 -99t73 -253q-26 -141 -162 -250h170l-28 -35h-955z" />
    <glyph glyph-name="uni20B9" unicode="&#x20b9;" horiz-adv-x="1177" 
d="M336 514q-27 69 -55 98q-50 52 -131 52h-41l28 32l178 2q80 1 146.5 28t112 74t75 105t43.5 125q8 50 8 72h-505l28 35h479q0 114 -57 188t-180 74h-207l27 35h889l-27 -35h-397q88 -37 133.5 -107t52.5 -155h174l-27 -35h-147q0 -45 -8 -78q-15 -70 -54.5 -131
t-105.5 -112t-170 -81t-233 -30v-6q40 0 84 -14t89.5 -54t63.5 -100l105 -291q38 -103 93.5 -140.5t127.5 -37.5l-4 -27h-404z" />
    <glyph glyph-name="uni20BD" unicode="&#x20bd;" horiz-adv-x="1241" 
d="M-84 330l25 35h204l39 186h-221l25 35h202l138 643q37 178 -117 178v27h584q89 0 162 -15t124 -40.5t89 -62t59.5 -77.5t31.5 -88t9.5 -93t-10.5 -93q-11 -50 -29 -94t-49 -88.5t-73 -80.5t-102 -67t-133.5 -51t-170.5 -29t-211 -4l6 22q98 -6 179.5 13t138.5 55
t100 88.5t68 110t38 123.5q9 61 11 122.5t-17.5 118t-52.5 100t-93 69.5t-139 26h-135l-219 -1034h262l-25 -35h-245l-27 -125q-37 -178 174 -178v-27h-577v27q67 0 108.5 39.5t63.5 138.5l26 125h-221z" />
    <glyph glyph-name="uni2116" unicode="&#x2116;" horiz-adv-x="2324" 
d="M141 -16q-93 -1 -147.5 45t-54.5 114q0 61 38 99.5t91 38.5q58 0 94 -39.5t33 -98.5q-2 -48 6 -67.5t39 -16.5q31 4 62 27t63 68.5t61.5 126.5t52.5 190l135 627q30 144 -32 226.5t-164 82.5v27h389l457 -1063l127 635q96 475 385 481q92 3 147 -44t55 -114
q0 -62 -38 -100.5t-91 -38.5q-59 0 -95 39.5t-34 97.5q3 49 -4.5 68.5t-40.5 15.5q-68 -7 -132.5 -104t-106.5 -306l-207 -1011h-29l-530 1161l-146 -686q-52 -251 -147 -364.5t-236 -116.5zM1419 25l19 94h602l-21 -94h-600zM1530 662q30 141 143.5 226t245.5 85t208 -94.5
t44 -237.5q-30 -141 -141.5 -229t-241.5 -88q-136 0 -211.5 98t-46.5 240zM1679 625q-22 -126 12 -199.5t115 -69.5q72 3 134 99.5t85 226.5q19 119 -12 190t-108 70q-56 -1 -104 -49t-77.5 -117.5t-44.5 -150.5z" />
    <glyph glyph-name="trademark" unicode="&#x2122;" horiz-adv-x="1165" 
d="M838 915l-58 418l-100 -301q-14 -54 -3 -71t48 -15l-4 -20h-178l4 20q36 -2 61 17t43 69l97 289q10 29 10.5 47.5t-8 27.5t-19.5 12t-29 3l5 21h170l45 -340l192 340h146l-5 -21q-31 0 -46.5 -11.5t-18.5 -47.5l-25 -351q-3 -35 8 -46t39 -9l-4 -20h-221l4 20q31 -2 47 9
t19 46l26 326l-229 -412h-16zM211 1286l57 146h400l-11 -146l-18 -6q0 50 -27.5 88.5t-70.5 38.5h-25l-88 -412q-7 -30 5 -40.5t34 -8.5l-4 -20h-205l4 20q47 -4 57 49l89 412h-23q-44 0 -91 -40.5t-63 -86.5z" />
    <glyph glyph-name="uni2150" unicode="&#x2150;" horiz-adv-x="1251" 
d="M176 780q56 0 87.5 18.5t41.5 69.5l96 453q8 34 -2 47.5t-43 13.5h-71l2 27q87 0 161 32t105 99h27l-144 -672q-10 -50 14.5 -69t77.5 -19l-2 -24h-354zM-43 6l1239 1436l27 -21l-1235 -1435zM705 524l94 232h454l-4 -25q-73 -84 -121.5 -146.5t-103.5 -148.5t-86 -174.5
t-37 -179.5q-3 -45 -28.5 -71.5t-57.5 -26.5q-35 0 -52 27t-1 85q12 46 46.5 108.5t86.5 133t91 120.5t93.5 115t61.5 74h-201q-95 0 -135.5 -26t-75.5 -101z" />
    <glyph glyph-name="uni2151" unicode="&#x2151;" horiz-adv-x="1325" 
d="M176 780q56 0 87.5 18.5t41.5 69.5l96 453q8 34 -2 47.5t-43 13.5h-71l2 27q87 0 161 32t105 99h27l-144 -672q-10 -50 14.5 -69t77.5 -19l-2 -24h-354zM-43 6l1239 1436l27 -21l-1235 -1435zM725 -16l4 24q102 11 200.5 91.5t153.5 219.5q-67 -52 -153 -55
q-93 -2 -146 69t-30 173q21 104 107 180.5t196 77.5q117 2 174.5 -91t28.5 -237q-24 -119 -99.5 -222t-191.5 -166.5t-244 -63.5zM889 526q-17 -101 13 -159t91 -56q56 0 107 51q19 64 26 105q24 124 2 197t-81 71q-56 -2 -98.5 -58t-59.5 -151z" />
    <glyph glyph-name="uni2152" unicode="&#x2152;" horiz-adv-x="1792" 
d="M176 780q56 0 87.5 18.5t41.5 69.5l96 453q8 34 -2 47.5t-43 13.5h-71l2 27q87 0 161 32t105 99h27l-144 -672q-10 -50 14.5 -69t77.5 -19l-2 -24h-354zM-43 6l1239 1436l27 -21l-1235 -1435zM670 -4l4 24q56 0 87.5 19t41.5 70l96 452q8 34 -2 48t-43 14h-72l2 26
q87 0 161.5 32t105.5 99h26l-143 -671q-10 -50 14.5 -69.5t77.5 -19.5l-2 -24h-354zM1153 375q38 180 144 284.5t223 104.5q116 0 174.5 -105.5t21.5 -285.5q-38 -182 -140 -287.5t-216 -105.5q-124 0 -184 107t-23 288zM1280 319q-26 -134 -1 -226.5t97 -82.5
q69 9 130 133.5t87 284.5q25 140 0.5 227t-100.5 76q-68 -9 -128 -132.5t-85 -279.5z" />
    <glyph glyph-name="uni2153" unicode="&#x2153;" horiz-adv-x="1257" 
d="M176 780q56 0 87.5 18.5t41.5 69.5l96 453q8 34 -2 47.5t-43 13.5h-71l2 27q87 0 161 32t105 99h27l-144 -672q-10 -50 14.5 -69t77.5 -19l-2 -24h-354zM-43 6l1239 1436l27 -21l-1235 -1435zM649 143q3 32 23.5 54t48.5 22q26 0 41.5 -18.5t15.5 -42.5q-2 -21 -14 -44
t-14 -36q-6 -28 12.5 -44t56.5 -16q59 1 113 56t69 127q19 89 -21.5 144t-125.5 54l6 27q70 5 119.5 42.5t64.5 100.5q13 63 -15 97t-77 34q-39 0 -79 -25t-70 -77l-23 6q32 74 96 122.5t148 47.5q75 -2 118.5 -51t28.5 -125q-12 -52 -56.5 -94.5t-100.5 -54.5
q72 -18 110.5 -81.5t20.5 -146.5q-22 -108 -114.5 -170.5t-201.5 -62.5q-82 0 -134.5 42.5t-45.5 112.5z" />
    <glyph glyph-name="uni2154" unicode="&#x2154;" horiz-adv-x="1339" 
d="M141 770q211 175 307.5 283.5t118.5 212.5q19 84 -11.5 131t-86.5 47q-55 0 -100.5 -37.5t-69.5 -99.5l-27 2q30 96 107.5 154.5t167.5 56.5q85 -2 134 -67.5t30 -158.5q-9 -44 -35 -87.5t-56 -78t-90 -84t-104.5 -83.5t-133.5 -98q-12 -9 -18 -13h172q93 0 129 23
t74 102l23 -6l-94 -226h-443zM47 6l1239 1436l27 -21l-1235 -1435zM737 143q3 32 23.5 54t48.5 22q26 0 41.5 -18.5t15.5 -42.5q-2 -21 -14 -44t-14 -36q-6 -28 12.5 -44t56.5 -16q59 1 113.5 56.5t69.5 126.5q19 89 -21.5 144t-126.5 54l6 27q70 5 120 42.5t65 100.5
q13 62 -15.5 96.5t-77.5 34.5q-39 0 -79 -25t-70 -77l-23 6q32 74 96 122.5t148 47.5q76 -2 119.5 -51t28.5 -125q-12 -52 -57 -94.5t-101 -54.5q72 -18 110.5 -81.5t20.5 -146.5q-22 -108 -114 -170.5t-201 -62.5q-82 0 -135 42.5t-46 112.5z" />
    <glyph glyph-name="uni2155" unicode="&#x2155;" horiz-adv-x="1271" 
d="M176 780q56 0 87.5 18.5t41.5 69.5l96 453q8 34 -2 47.5t-43 13.5h-71l2 27q87 0 161 32t105 99h27l-144 -672q-10 -50 14.5 -69t77.5 -19l-2 -24h-354zM-43 6l1239 1436l27 -21l-1235 -1435zM647 137q3 34 24 55t50 21q26 0 41.5 -18t13.5 -45q-1 -20 -14.5 -42.5
t-16.5 -35.5q-4 -27 15 -43.5t51 -16.5q65 0 128 63.5t81 153.5q22 98 -14 155.5t-119 57.5q-76 0 -123 -61l-21 10q69 89 144 363h215h24q49 0 67 1.5t31.5 9.5t20.5 28l27 -2l-58 -144h-327q-40 -124 -66 -178q59 23 121 23q118 0 182 -69t41 -181q-18 -82 -74 -143
t-124.5 -89t-137.5 -28q-85 0 -137 44t-45 111z" />
    <glyph glyph-name="uni2156" unicode="&#x2156;" horiz-adv-x="1355" 
d="M141 770q211 175 307.5 283.5t118.5 212.5q19 84 -11.5 131t-86.5 47q-55 0 -100.5 -37.5t-69.5 -99.5l-27 2q30 96 107.5 154.5t167.5 56.5q85 -2 134 -67.5t30 -158.5q-9 -44 -35 -87.5t-56 -78t-90 -84t-104.5 -83.5t-133.5 -98q-12 -9 -18 -13h172q93 0 129 23
t74 102l23 -6l-94 -226h-443zM47 6l1239 1436l27 -21l-1235 -1435zM735 137q3 34 24 55t50 21q26 0 41.5 -18t13.5 -45q-1 -20 -14 -42.5t-16 -35.5q-4 -27 14.5 -43.5t50.5 -16.5q65 0 128 63.5t81 153.5q22 98 -14 155.5t-119 57.5q-76 0 -123 -61l-21 10q69 89 144 363
h215h24q49 0 67 1.5t31.5 9.5t20.5 28l27 -2l-57 -144h-328q-40 -124 -66 -178q59 23 121 23q118 0 182 -69t41 -181q-26 -121 -126 -190.5t-209 -69.5q-85 0 -137.5 44t-45.5 111z" />
    <glyph glyph-name="uni2157" unicode="&#x2157;" horiz-adv-x="1341" 
d="M346 743q-82 0 -134.5 43t-45.5 113q3 32 23.5 54t48.5 22q26 0 41.5 -19t15.5 -43q-2 -21 -14.5 -43.5t-14.5 -35.5q-6 -28 13 -44t57 -16q59 1 113 56t69 126q19 89 -21.5 144.5t-125.5 54.5l6 27q70 5 119.5 42.5t64.5 100.5q13 63 -15 97t-77 34q-39 0 -79.5 -25
t-70.5 -77l-22 6q32 74 96 122.5t148 47.5q75 -2 118.5 -51t28.5 -125q-12 -52 -57 -95t-101 -55q73 -18 111.5 -81t20.5 -146q-22 -108 -114.5 -171t-201.5 -63zM33 6l1239 1436l26 -21l-1235 -1435zM725 137q3 34 24 55t50 21q26 0 41.5 -18t13.5 -45q-1 -20 -14.5 -42.5
t-16.5 -35.5q-4 -27 15 -43.5t51 -16.5q65 0 128 63.5t81 153.5q22 98 -14 155.5t-119 57.5q-76 0 -123 -61l-21 10q69 89 144 363h215h24q49 0 67 1.5t31.5 9.5t20.5 28l27 -2l-58 -144h-327q-40 -124 -66 -178q59 23 121 23q118 0 182 -69t41 -181q-18 -82 -74 -143
t-124.5 -89t-137.5 -28q-85 0 -137 44t-45 111z" />
    <glyph glyph-name="uni2158" unicode="&#x2158;" horiz-adv-x="1392" 
d="M352 776q46 0 72.5 18.5t36.5 69.5l14 64h-295l4 28l525 576h26l-110 -520h104l-18 -84h-103l-14 -64q-11 -50 9.5 -69t66.5 -19l-2 -24h-320zM92 6l1239 1436l27 -21l-1235 -1435zM276 1012h216l69 323zM774 137q3 34 24 55t50 21q26 0 41.5 -18t13.5 -45
q-1 -20 -14.5 -42.5t-16.5 -35.5q-4 -27 15 -43.5t51 -16.5q65 0 128 63.5t81 153.5q22 98 -14 155.5t-119 57.5q-76 0 -123 -61l-21 10q69 89 144 363h215h24q49 0 67 1.5t31.5 9.5t20.5 28l27 -2l-58 -144h-327q-40 -124 -66 -178q59 23 121 23q118 0 182 -69t41 -181
q-18 -82 -74 -143t-124.5 -89t-137.5 -28q-85 0 -137 44t-45 111z" />
    <glyph glyph-name="uni2159" unicode="&#x2159;" horiz-adv-x="1267" 
d="M176 780q56 0 87.5 18.5t41.5 69.5l96 453q8 34 -2 47.5t-43 13.5h-71l2 27q87 0 161 32t105 99h27l-144 -672q-10 -50 14.5 -69t77.5 -19l-2 -24h-354zM-43 6l1239 1436l27 -21l-1235 -1435zM655 307q18 89 70 172t127.5 147.5t177.5 102t213 33.5l-6 -25
q-115 -8 -223.5 -84.5t-171.5 -210.5q73 54 151 54q92 0 142.5 -71.5t27.5 -178.5q-24 -111 -112.5 -190t-200.5 -79q-116 0 -171 94t-24 236zM788 285q-27 -120 -5 -200.5t81 -78.5q50 2 93.5 57.5t62.5 145.5q25 115 -2 177.5t-88 62.5q-56 0 -109 -50q-25 -73 -33 -114z
" />
    <glyph glyph-name="uni215A" unicode="&#x215a;" horiz-adv-x="1341" 
d="M348 735q-85 0 -137 44.5t-45 111.5q3 34 24 55t50 21q26 0 41.5 -18.5t13.5 -45.5q-1 -20 -14.5 -42.5t-16.5 -35.5q-4 -27 15 -43t51 -16q65 0 128 63.5t81 153.5q22 98 -14 155.5t-119 57.5q-76 0 -123 -61l-21 10q69 90 144 362h215h24q49 0 67 1.5t31.5 9.5t20.5 28
l27 -2l-58 -143h-327q-40 -124 -66 -178q57 22 121 22q118 0 182 -69t41 -181q-18 -82 -74 -143t-124.5 -89t-137.5 -28zM43 6l1239 1436l27 -21l-1235 -1435zM741 307q18 89 70 172t127.5 147.5t177.5 102t213 33.5l-6 -25q-115 -8 -223.5 -84.5t-171.5 -210.5
q73 54 151 54q92 0 142.5 -71.5t27.5 -178.5q-24 -111 -112.5 -190t-200.5 -79q-116 0 -171 94t-24 236zM874 285q-27 -120 -5 -200.5t81 -78.5q50 2 93.5 57.5t62.5 145.5q25 115 -2 177.5t-88 62.5q-56 0 -109 -50q-25 -73 -33 -114z" />
    <glyph glyph-name="oneeighth" unicode="&#x215b;" horiz-adv-x="1294" 
d="M176 780q56 0 87.5 18.5t41.5 69.5l96 453q8 34 -2 47.5t-43 13.5h-71l2 27q87 0 161 32t105 99h27l-144 -672q-10 -50 14.5 -69t77.5 -19l-2 -24h-354zM-43 6l1239 1436l27 -21l-1235 -1435zM666 182q27 129 206 189q-121 84 -94 200q15 79 94.5 138.5t178.5 58.5
q89 -1 140 -56t36 -128q-24 -119 -176 -162l8 -4q148 -94 121 -221q-20 -91 -110 -152.5t-202 -60.5q-107 0 -163.5 59.5t-38.5 138.5zM791 205q-19 -80 13.5 -136.5t96.5 -56.5q52 0 94 37.5t54 91.5q13 57 -8 97t-72 71l-64 41q-96 -59 -114 -145zM907 625
q-13 -57 6.5 -95t75.5 -71l29 -17q79 48 94 127q18 75 -6.5 122.5t-73.5 47.5q-44 1 -80 -33t-45 -81z" />
    <glyph glyph-name="threeeighths" unicode="&#x215c;" horiz-adv-x="1363" 
d="M346 743q-82 0 -134.5 43t-45.5 113q3 32 23.5 54t48.5 22q26 0 41.5 -19t15.5 -43q-2 -21 -14.5 -43.5t-14.5 -35.5q-6 -28 13 -44t57 -16q59 1 113 56t69 126q19 89 -21.5 144.5t-125.5 54.5l6 27q70 5 119.5 42.5t64.5 100.5q13 63 -15 97t-77 34q-39 0 -79.5 -25
t-70.5 -77l-22 6q32 74 96 122.5t148 47.5q75 -2 118.5 -51t28.5 -125q-12 -52 -57 -95t-101 -55q73 -18 111.5 -81t20.5 -146q-22 -108 -114.5 -171t-201.5 -63zM33 6l1239 1436l26 -21l-1235 -1435zM745 182q27 128 207 189q-121 84 -94 200q15 79 94.5 138.5t177.5 58.5
q90 -1 141 -56t36 -128q-24 -119 -177 -162l9 -4q148 -94 121 -221q-20 -91 -110 -152.5t-202 -60.5q-107 0 -164 59.5t-39 138.5zM870 205q-19 -80 14 -136.5t97 -56.5q51 0 93 37.5t54 91.5q24 105 -79 168l-64 41q-44 -27 -74 -60.5t-41 -84.5zM987 625q-13 -57 6.5 -95
t75.5 -71l29 -17q79 48 94 127q18 75 -6.5 122.5t-73.5 47.5q-44 1 -80 -33t-45 -81z" />
    <glyph glyph-name="fiveeighths" unicode="&#x215d;" horiz-adv-x="1368" 
d="M348 735q-85 0 -137 44.5t-45 111.5q3 34 24 55t50 21q26 0 41.5 -18.5t13.5 -45.5q-1 -20 -14.5 -42.5t-16.5 -35.5q-4 -27 15 -43t51 -16q65 0 128 63.5t81 153.5q22 98 -14 155.5t-119 57.5q-76 0 -123 -61l-21 10q69 90 144 362h215h24q49 0 67 1.5t31.5 9.5t20.5 28
l27 -2l-58 -143h-327q-40 -124 -66 -178q57 22 121 22q118 0 182 -69t41 -181q-18 -82 -74 -143t-124.5 -89t-137.5 -28zM43 6l1239 1436l27 -21l-1235 -1435zM752 182q27 129 206 189q-121 84 -94 200q15 79 94.5 138.5t178.5 58.5q89 -1 140 -56t36 -128
q-24 -119 -176 -162l8 -4q148 -94 121 -221q-20 -91 -110 -152.5t-202 -60.5q-107 0 -163.5 59.5t-38.5 138.5zM877 205q-19 -80 13.5 -136.5t96.5 -56.5q52 0 94 37.5t54 91.5q13 57 -8 97t-72 71l-64 41q-96 -59 -114 -145zM993 625q-13 -57 6.5 -95t75.5 -71l29 -17
q79 48 94 127q18 75 -6.5 122.5t-73.5 47.5q-44 1 -80 -33t-45 -81z" />
    <glyph glyph-name="seveneighths" unicode="&#x215e;" horiz-adv-x="1263" 
d="M358 745q-35 0 -52 27.5t-1 85.5q12 46 46.5 108.5t86.5 133t91 120.5t93.5 115t61.5 74h-201q-95 0 -135.5 -26t-75.5 -101l-24 4l94 232h455l-4 -25q-58 -67 -97 -115t-88.5 -118.5t-80 -131t-54.5 -136t-29 -148.5q-3 -45 -29 -72t-57 -27zM-23 6l1240 1436l26 -21
l-1235 -1435zM635 182q27 128 207 189q-121 84 -94 200q15 79 94.5 138.5t177.5 58.5q89 -1 140 -56t36 -128q-24 -119 -176 -162l8 -4q148 -94 121 -221q-20 -91 -109.5 -152.5t-201.5 -60.5q-107 0 -164 59.5t-39 138.5zM760 205q-19 -80 13.5 -136.5t96.5 -56.5
q52 0 94 37.5t54 91.5q13 57 -8 97t-72 71l-64 41q-96 -59 -114 -145zM877 625q-13 -57 6.5 -95t74.5 -71l29 -17q79 48 94 127q18 75 -6.5 122.5t-73.5 47.5q-44 1 -79.5 -32.5t-44.5 -81.5z" />
    <glyph glyph-name="uni215F" unicode="&#x215f;" horiz-adv-x="626" 
d="M141 780q56 0 87.5 18.5t41.5 69.5l97 453q8 34 -2 47.5t-43 13.5h-72l2 27q87 0 161 32t105 99h27l-144 -672q-10 -50 15 -69t78 -19l-2 -24h-355zM-133 6l1239 1436l27 -21l-1235 -1435z" />
    <glyph glyph-name="uni2189" unicode="&#x2189;" horiz-adv-x="1411" 
d="M424 735q-124 0 -184 107t-23 288q38 180 144 285t223 105q116 0 174.5 -106t21.5 -286q-38 -182 -140 -287.5t-216 -105.5zM135 6l1239 1436l27 -21l-1235 -1435zM344 1075q-26 -134 -1 -226.5t97 -82.5q69 9 130 133.5t87 284.5q25 140 0.5 227t-100.5 76
q-68 -9 -128 -132.5t-85 -279.5zM809 143q3 32 23.5 54t48.5 22q26 0 41.5 -18.5t15.5 -42.5q-2 -21 -14.5 -44t-14.5 -36q-6 -28 13 -44t57 -16q59 1 113 56t69 127q19 89 -21.5 144t-125.5 54l6 27q70 5 119.5 42.5t64.5 100.5q13 63 -15 97t-77 34q-39 0 -79 -25t-70 -77
l-23 6q32 74 96 122.5t148 47.5q75 -2 118.5 -51t28.5 -125q-12 -52 -56.5 -94.5t-100.5 -54.5q72 -18 110.5 -81.5t20.5 -146.5q-22 -108 -114.5 -170.5t-201.5 -62.5q-82 0 -134.5 42.5t-45.5 112.5z" />
    <glyph glyph-name="arrowleft" unicode="&#x2190;" horiz-adv-x="1622" 
d="M1507 526q0 -56 -40.5 -91.5t-118.5 -35.5q-67 0 -162.5 14.5t-192 32.5t-275 37t-384.5 27v-12q92 -23 163 -79.5t107 -121.5q27 -56 18 -102.5t-42 -71.5q-16 -13 -39 -18t-49 -2t-51 25.5t-40 61.5q-17 44 -43 87t-65.5 89.5t-96.5 86t-124 61.5v23q67 22 124 61.5
t96 86t65 89t42 84.5q15 41 40 63.5t51.5 26t49.5 -2.5t40 -19q34 -25 42.5 -70.5t-18.5 -101.5q-35 -64 -106.5 -121t-163.5 -82v-10q206 8 384.5 27t275 37t192 32t162.5 14q78 0 118.5 -35.5t40.5 -89.5z" />
    <glyph glyph-name="arrowup" unicode="&#x2191;" horiz-adv-x="1075" 
d="M539 -102q-56 0 -91.5 40.5t-35.5 118.5q0 67 14 162.5t32 192t37 275t27 384.5h-12q-23 -92 -79.5 -163t-121.5 -107q-56 -27 -102.5 -18t-71.5 42q-12 16 -17.5 39t-2 49t26 51t61.5 40q60 24 116.5 61t117 108.5t89.5 159.5h23q22 -67 61.5 -124t86 -96t89 -65
t84.5 -42q41 -15 63.5 -40t26 -51.5t-2.5 -49.5t-19 -40q-25 -34 -70.5 -42.5t-101.5 18.5q-64 35 -121 106.5t-82 163.5h-10q8 -206 27 -384.5t37 -275t32.5 -192t14.5 -162.5q0 -78 -35.5 -118.5t-89.5 -40.5z" />
    <glyph glyph-name="arrowright" unicode="&#x2192;" horiz-adv-x="1622" 
d="M113 526q0 56 40.5 91.5t118.5 35.5q67 0 162.5 -14t192 -32t275 -37t384.5 -27v12q-92 23 -163 79.5t-107 121.5q-27 56 -18 102.5t42 71.5q16 12 39 17.5t49 2t51 -26t40 -61.5q24 -60 61 -116.5t108.5 -117t159.5 -89.5v-23q-67 -22 -124 -61.5t-96 -86t-65 -89
t-42 -84.5q-15 -41 -40 -63.5t-51.5 -26t-49.5 2.5t-40 19q-34 25 -42.5 70.5t18.5 101.5q35 64 106.5 121t163.5 82v10q-206 -8 -384.5 -27t-275 -37t-192 -32.5t-162.5 -14.5q-78 0 -118.5 35.5t-40.5 89.5z" />
    <glyph glyph-name="arrowdown" unicode="&#x2193;" horiz-adv-x="1075" 
d="M537 1278q56 0 91.5 -41t35.5 -119q0 -67 -14.5 -162.5t-32.5 -192t-37 -275t-27 -384.5h12q23 92 80 164t121 107q56 27 102.5 17.5t71.5 -42.5q12 -16 17.5 -38.5t2 -48.5t-26 -51t-61.5 -40q-97 -38 -188.5 -120.5t-134.5 -209.5h-23q-22 67 -61.5 124.5t-86 96.5
t-89 65t-84.5 42q-41 15 -63.5 40t-26 51t2.5 49t19 40q25 35 70.5 43.5t101.5 -18.5q64 -35 121 -107t82 -164h10q-8 206 -27 384.5t-37 275t-32 192t-14 162.5q0 78 35.5 119t89.5 41z" />
    <glyph glyph-name="arrowboth" unicode="&#x2194;" horiz-adv-x="1826" 
d="M72 498q88 29 159.5 89.5t108.5 117t61 116.5q15 39 40 61.5t51.5 26t49.5 -1.5t40 -18q32 -25 40.5 -71.5t-18.5 -102.5q-34 -64 -106 -121t-164 -80v-12q116 3 216.5 28t187 47.5t173.5 22.5q86 0 173 -22.5t189 -47.5t218 -28v12q-92 23 -163 79.5t-107 121.5
q-27 56 -18 102.5t42 71.5q16 12 38.5 17.5t48.5 2t51 -26t40 -61.5q38 -97 120.5 -188.5t209.5 -134.5v-23q-127 -43 -210 -135.5t-118 -185.5q-15 -41 -40 -63.5t-51 -26t-49 2.5t-40 19q-34 25 -42.5 70.5t18.5 101.5q35 64 106.5 121t163.5 82v10q-116 -3 -217.5 -28
t-188.5 -47.5t-174 -22.5t-173.5 22.5t-187 47.5t-216.5 28v-10q93 -25 165 -82t105 -121q27 -56 19 -101.5t-41 -70.5q-17 -13 -41 -19t-50.5 -2.5t-51.5 26t-40 63.5q-35 94 -117.5 186t-209.5 135v23z" />
    <glyph glyph-name="arrowupdn" unicode="&#x2195;" horiz-adv-x="1157" 
d="M567 -328q-43 127 -134.5 209.5t-188.5 120.5q-39 15 -61.5 40t-26 51t1.5 49t18 40q26 32 72 40.5t102 -17.5q64 -33 121 -105.5t80 -165.5h12q-3 116 -28 217t-47.5 187.5t-22.5 173.5q0 86 22.5 173t47.5 189t28 218h-12q-23 -92 -80 -164t-121 -107
q-56 -27 -102.5 -17.5t-71.5 42.5q-12 16 -17.5 38.5t-2 48.5t26 51t61.5 40q97 38 188.5 120.5t134.5 209.5h23q43 -127 135.5 -210t185.5 -118q41 -15 63.5 -40t26 -51t-2.5 -49t-19 -40q-25 -35 -70.5 -43.5t-101.5 18.5q-64 35 -121 107t-82 164h-10q3 -116 28 -217.5
t47.5 -188.5t22.5 -174t-22.5 -173.5t-47.5 -187.5t-28 -217h10q25 93 82.5 165.5t120.5 105.5q56 27 101.5 18.5t70.5 -41.5q13 -17 19 -40.5t2.5 -50t-26 -51.5t-63.5 -40q-93 -35 -185.5 -118t-135.5 -210h-23z" />
    <glyph glyph-name="uni2196" unicode="&#x2196;" horiz-adv-x="1304" 
d="M1155 16q-25 -25 -57 -33t-70.5 6t-75.5 52q-47 47 -104.5 124.5t-113 158.5t-168 220.5t-253.5 291.5l-8 -11q33 -55 49 -117.5t14.5 -115.5t-14.5 -98q-18 -55 -59 -83.5t-82 -23.5q-47 6 -79 53.5t1 120.5q26 59 39.5 126t5.5 160.5t-49 176.5l14 14q83 -41 177 -48.5
t160.5 6t123.5 38.5q75 34 121.5 2t52.5 -82q6 -41 -21 -81t-83 -56q-44 -13 -97.5 -14.5t-117 14t-119.5 47.5l-8 -8q152 -141 291.5 -253t220 -167.5t158.5 -113t126 -105.5q37 -37 50.5 -75t6 -69.5t-31.5 -56.5z" />
    <glyph glyph-name="uni2197" unicode="&#x2197;" horiz-adv-x="1304" 
d="M147 16q-25 25 -33 56.5t6 70t52 76.5q47 47 124.5 104.5t158.5 113t220.5 168t291.5 253.5l-9 8q-56 -33 -119 -49t-116 -14.5t-98 14.5q-55 16 -83.5 57.5t-23.5 83.5q3 28 23.5 52.5t58.5 37t92 -11.5q59 -26 126 -39.5t160.5 -5.5t176.5 49l16 -16
q-42 -83 -50 -176.5t5.5 -159.5t38.5 -123q34 -76 2.5 -123t-80.5 -53q-42 -6 -82.5 21.5t-56.5 83.5q-13 45 -14.5 98t14 116.5t47.5 120.5l-6 7q-141 -151 -253.5 -290.5t-168 -220.5t-113 -159t-104.5 -125q-37 -37 -76 -51t-70.5 -6t-56.5 32z" />
    <glyph glyph-name="uni2198" unicode="&#x2198;" horiz-adv-x="1304" 
d="M150 1028q34 39 91 35.5t111 -59.5q47 -47 104.5 -124.5t113 -158.5t168 -220.5t253.5 -291.5l8 10q-33 55 -49 118t-14.5 116t14.5 98q16 55 58 83t84 23q28 -3 52.5 -23.5t36.5 -58.5t-12 -92q-26 -58 -39.5 -125.5t-5 -161t49.5 -176.5l-17 -14q-83 41 -176.5 48.5
t-159.5 -6t-123 -38.5q-75 -34 -122.5 -2t-51.5 82q-8 41 19.5 81t83.5 56q45 13 99 14.5t117.5 -14t119.5 -47.5l6 8q-151 141 -290.5 253t-220.5 167.5t-159 113t-125 105.5q-37 37 -50.5 75t-5.5 69.5t32 56.5z" />
    <glyph glyph-name="uni2199" unicode="&#x2199;" horiz-adv-x="1304" 
d="M1155 1024q39 -34 35.5 -90.5t-57.5 -112.5q-47 -47 -125 -104.5t-159 -113t-220.5 -168t-290.5 -253.5l8 -8q56 33 119.5 49t116.5 14.5t98 -14.5q55 -16 83 -57.5t21 -81.5q-3 -28 -23.5 -53t-58.5 -38t-92 11q-59 26 -125 39.5t-159 5.5t-176 -49l-17 16
q41 83 48.5 176.5t-6 159.5t-38.5 123q-34 76 -1.5 123t81.5 53q42 6 82.5 -21t56.5 -83q13 -45 14.5 -98.5t-14 -117t-47.5 -120.5l6 -6q141 151 253.5 290t168 220.5t113 159t104.5 124.5q56 56 112 60t89 -35z" />
    <glyph glyph-name="minus" unicode="&#x2212;" horiz-adv-x="1265" 
d="M193 688l8 37h872l-8 -37h-872z" />
    <glyph glyph-name="infinity" unicode="&#x221e;" horiz-adv-x="1509" 
d="M473 305q-116 0 -196 80t-80 195t80 194.5t196 79.5q104 0 177 -66t104 -159q34 94 105 159.5t175 65.5q117 0 198 -79.5t81 -194.5t-81 -195t-198 -80q-94 0 -167 59t-113 166q-38 -107 -112.5 -166t-168.5 -59zM233 580q0 -102 69 -171t171 -69q95 0 160 65.5
t100 174.5q-75 239 -260 239q-102 0 -171 -68.5t-69 -170.5zM776 580q35 -109 99.5 -174.5t158.5 -65.5q103 0 172.5 68.5t69.5 171.5q0 102 -69.5 170.5t-172.5 68.5q-96 0 -158.5 -61t-99.5 -178z" />
    <glyph glyph-name="integral" unicode="&#x222b;" horiz-adv-x="1298" 
d="M266 -348q-85 0 -151.5 32.5t-87.5 94.5q-23 44 -6 92.5t71 58.5q58 10 95.5 -28t37.5 -109q2 -59 15 -85.5t47 -26.5q131 0 186 393l131 964q32 214 145.5 342.5t292.5 128.5q84 0 151 -32.5t89 -94.5q22 -44 4.5 -92.5t-72.5 -58.5q-57 -11 -94.5 28t-36.5 109
q-2 58 -15.5 85.5t-45.5 27.5q-133 0 -188 -394l-132 -964q-32 -214 -145 -342.5t-291 -128.5z" />
    <glyph glyph-name="approxequal" unicode="&#x2248;" horiz-adv-x="1429" 
d="M403 750q-38 -25 -78.5 -15t-52.5 51q-14 45 7 107.5t71 103.5q97 85 234.5 71t287.5 -116q102 -64 186 -93t129 -24.5t60 29.5q6 12 0.5 16.5t-27 9t-34.5 9.5q-36 15 -44.5 43.5t5.5 56t39 43.5q38 26 77.5 16t51.5 -50q18 -44 -4.5 -106.5t-73.5 -104.5
q-98 -84 -231.5 -71.5t-290.5 114.5q-100 65 -184 94t-129 24.5t-60 -28.5q-6 -13 0 -18t27.5 -8.5t33.5 -8.5q35 -15 43.5 -43.5t-5 -56t-38.5 -45.5zM184 369q-14 47 7 109.5t71 103.5q98 85 233.5 70.5t286.5 -115.5q103 -64 187.5 -93t129.5 -24.5t60 29.5
q6 12 0.5 16.5t-26.5 8t-35 9.5q-35 15 -43.5 43.5t5 56t38.5 44.5q37 25 77 14.5t52 -49.5q16 -45 -5.5 -107.5t-72.5 -105.5q-97 -83 -232.5 -70.5t-289.5 115.5q-101 64 -185 93t-128.5 24.5t-59.5 -29.5q-7 -12 -1 -17t27.5 -8.5t34.5 -9.5q35 -15 43.5 -43t-5 -55
t-38.5 -45q-38 -26 -78.5 -15.5t-52.5 50.5z" />
    <glyph glyph-name="notequal" unicode="&#x2260;" horiz-adv-x="1265" 
d="M291 307l-27 23l158 174h-268l6 37h297l301 331h-527l9 37h553l182 201l29 -23l-162 -178h270l-8 -37h-297l-303 -331h528l-6 -37h-555z" />
    <glyph glyph-name="lessequal" unicode="&#x2264;" horiz-adv-x="1259" 
d="M1018 451l-787 319l7 49l858 322l10 -41l-815 -305l745 -303zM150 281l2 38h866l-4 -38h-864z" />
    <glyph glyph-name="greaterequal" unicode="&#x2265;" horiz-adv-x="1259" 
d="M158 451l-8 41l847 303l-716 305l22 41l754 -322l-10 -49zM104 281l9 38h866l-8 -38h-867z" />
    <glyph glyph-name="uni2460" unicode="&#x2460;" horiz-adv-x="1564" 
d="M721 -4q-149 0 -276.5 56.5t-214.5 153t-131 230.5t-31 285q13 147 80.5 280t171 228.5t242 152t286.5 56.5q195 0 350 -95.5t234.5 -260t62.5 -361.5q-17 -201 -126 -367.5t-280.5 -262t-367.5 -95.5zM115 721q-16 -189 57.5 -345t219.5 -245.5t333 -89.5
q185 0 345.5 89.5t262 245.5t117.5 345q12 138 -28.5 262.5t-121 214.5t-199.5 142.5t-257 52.5q-187 0 -349 -89.5t-263 -243.5t-117 -339zM520 295v24q58 -2 92 20.5t47 82.5l109 510q8 39 -2.5 54t-46.5 15h-78l6 27q94 2 174.5 38t118.5 114h27l-162 -758
q-13 -59 14.5 -82t85.5 -21v-24h-385z" />
    <glyph glyph-name="uni2461" unicode="&#x2461;" horiz-adv-x="1564" 
d="M721 -4q-149 0 -276.5 56.5t-214.5 153t-131 230.5t-31 285q13 147 80.5 280t171 228.5t242 152t286.5 56.5q195 0 350 -95.5t234.5 -260t62.5 -361.5q-17 -201 -126 -367.5t-280.5 -262t-367.5 -95.5zM115 721q-16 -189 57.5 -345t219.5 -245.5t333 -89.5
q185 0 345.5 89.5t262 245.5t117.5 345q12 138 -28.5 262.5t-121 214.5t-199.5 142.5t-257 52.5q-187 0 -349 -89.5t-263 -243.5t-117 -339zM438 291l6 28q227 193 335.5 319.5t133.5 240.5q20 100 -13.5 151t-96.5 51q-57 0 -108 -42.5t-77 -110.5l-28 4
q36 107 120.5 170.5t182.5 60.5q93 -2 146 -73t32 -179q-11 -49 -39 -96.5t-65 -90t-98 -95.5t-120.5 -99t-149.5 -114q-7 -5 -11 -8h188q71 0 110 12t64.5 39.5t55.5 87.5l20 -4l-102 -252h-486z" />
    <glyph glyph-name="uni2462" unicode="&#x2462;" horiz-adv-x="1564" 
d="M721 -4q-149 0 -276.5 56.5t-214.5 153t-131 230.5t-31 285q13 147 80.5 280t171 228.5t242 152t286.5 56.5q195 0 350 -95.5t234.5 -260t62.5 -361.5q-17 -201 -126 -367.5t-280.5 -262t-367.5 -95.5zM115 721q-16 -189 57.5 -345t219.5 -245.5t333 -89.5
q185 0 345.5 89.5t262 245.5t117.5 345q12 138 -28.5 262.5t-121 214.5t-199.5 142.5t-257 52.5q-187 0 -349 -89.5t-263 -243.5t-117 -339zM467 444q0 39 22 62.5t54 23.5q29 0 47 -20.5t18 -48.5q0 -22 -12.5 -46.5t-13.5 -39.5q-2 -29 19.5 -47.5t57.5 -18.5
q68 1 128.5 66t78.5 147q22 101 -21.5 163.5t-137.5 62.5l4 24q64 6 110 33v6h8q69 43 86 121q14 72 -15.5 112.5t-84.5 40.5q-43 0 -86.5 -28t-75.5 -86l-26 6q37 84 108.5 137.5t159.5 52.5q81 -2 130.5 -59.5t29.5 -142.5q-10 -58 -61 -104t-117 -60q85 -23 126.5 -93
t22.5 -163q-17 -81 -73 -142.5t-129 -91.5t-152 -30q-88 0 -146.5 46t-58.5 117z" />
    <glyph glyph-name="uni2463" unicode="&#x2463;" horiz-adv-x="1564" 
d="M721 -4q-149 0 -276.5 56.5t-214.5 153t-131 230.5t-31 285q13 147 80.5 280t171 228.5t242 152t286.5 56.5q195 0 350 -95.5t234.5 -260t62.5 -361.5q-17 -201 -126 -367.5t-280.5 -262t-367.5 -95.5zM115 721q-16 -189 57.5 -345t219.5 -245.5t333 -89.5
q185 0 345.5 89.5t262 245.5t117.5 345q12 138 -28.5 262.5t-121 214.5t-199.5 142.5t-257 52.5q-187 0 -349 -89.5t-263 -243.5t-117 -339zM406 494l6 28l583 652h27l-125 -590h113l-19 -90h-112l-17 -74q-13 -59 11 -82t75 -21v-24h-352v24q49 -2 78.5 20.5t40.5 82.5
l18 74h-327zM510 584h240l79 366z" />
    <glyph glyph-name="uni2464" unicode="&#x2464;" horiz-adv-x="1564" 
d="M721 -4q-149 0 -276.5 56.5t-214.5 153t-131 230.5t-31 285q13 147 80.5 280t171 228.5t242 152t286.5 56.5q195 0 350 -95.5t234.5 -260t62.5 -361.5q-17 -201 -126 -367.5t-280.5 -262t-367.5 -95.5zM115 721q-16 -189 57.5 -345t219.5 -245.5t333 -89.5
q185 0 345.5 89.5t262 245.5t117.5 345q12 138 -28.5 262.5t-121 214.5t-199.5 142.5t-257 52.5q-187 0 -349 -89.5t-263 -243.5t-117 -339zM434 451q0 39 23 63.5t55 24.5q29 0 47.5 -22t18.5 -50q0 -21 -13 -47t-14 -41q0 -29 22 -46.5t62 -17.5q73 0 137 71.5t84 172.5
q25 111 -14.5 179.5t-128.5 68.5q-83 0 -138 -68l-18 13q39 52 81.5 165.5t74.5 237.5h237h34q70 -1 90.5 5.5t35.5 37.5h25l-62 -160h-360q-27 -90 -74 -204q57 26 133 26q129 0 200 -81.5t44 -205.5q-15 -72 -54 -128.5t-92 -89.5t-109.5 -49.5t-113.5 -16.5
q-94 0 -152.5 46t-60.5 116z" />
    <glyph glyph-name="uni2465" unicode="&#x2465;" horiz-adv-x="1564" 
d="M721 -4q-149 0 -276.5 56.5t-214.5 153t-131 230.5t-31 285q13 147 80.5 280t171 228.5t242 152t286.5 56.5q195 0 350 -95.5t234.5 -260t62.5 -361.5q-17 -201 -126 -367.5t-280.5 -262t-367.5 -95.5zM115 721q-16 -189 57.5 -345t219.5 -245.5t333 -89.5
q185 0 345.5 89.5t262 245.5t117.5 345q12 138 -28.5 262.5t-121 214.5t-199.5 142.5t-257 52.5q-187 0 -349 -89.5t-263 -243.5t-117 -339zM475 655q20 98 76.5 189.5t139 163t196 113.5t235.5 38l-4 -22q-129 -9 -250 -98t-192 -242q76 61 164 61q101 0 159 -86.5
t33 -206.5q-27 -125 -119 -205.5t-213 -80.5q-131 0 -195.5 105.5t-29.5 270.5zM621 631q-29 -139 0 -232.5t96 -91.5q109 0 157 215q28 131 -5 209t-97 78q-56 0 -115 -55q-24 -58 -36 -123z" />
    <glyph glyph-name="uni2466" unicode="&#x2466;" horiz-adv-x="1564" 
d="M721 -4q-149 0 -276.5 56.5t-214.5 153t-131 230.5t-31 285q13 147 80.5 280t171 228.5t242 152t286.5 56.5q195 0 350 -95.5t234.5 -260t62.5 -361.5q-17 -201 -126 -367.5t-280.5 -262t-367.5 -95.5zM115 721q-16 -189 57.5 -345t219.5 -245.5t333 -89.5
q185 0 345.5 89.5t262 245.5t117.5 345q12 138 -28.5 262.5t-121 214.5t-199.5 142.5t-257 52.5q-187 0 -349 -89.5t-263 -243.5t-117 -339zM532 877l103 258h498l-5 -27q-62 -72 -106 -127.5t-98 -134.5t-88.5 -148t-60.5 -154t-32 -167q-3 -50 -31 -79.5t-63 -29.5
q-41 0 -59 30t0 93q14 53 53 124.5t96 151t101.5 137.5t104 130.5t67.5 83.5h-221q-105 0 -151.5 -30.5t-84.5 -115.5z" />
    <glyph glyph-name="uni2467" unicode="&#x2467;" horiz-adv-x="1564" 
d="M721 -4q-149 0 -276.5 56.5t-214.5 153t-131 230.5t-31 285q13 147 80.5 280t171 228.5t242 152t286.5 56.5q195 0 350 -95.5t234.5 -260t62.5 -361.5q-17 -201 -126 -367.5t-280.5 -262t-367.5 -95.5zM115 721q-16 -189 57.5 -345t219.5 -245.5t333 -89.5
q185 0 345.5 89.5t262 245.5t117.5 345q12 138 -28.5 262.5t-121 214.5t-199.5 142.5t-257 52.5q-187 0 -349 -89.5t-263 -243.5t-117 -339zM459 504q29 142 231 207q-139 97 -104 235q19 87 104.5 150.5t192.5 62.5q99 -1 156 -64.5t38 -148.5q-13 -67 -67 -111t-129 -65
l10 -6q79 -52 113.5 -118.5t19.5 -137.5q-21 -104 -118.5 -170t-217.5 -64q-122 1 -186 70.5t-43 159.5zM596 528q-20 -90 15.5 -156t105.5 -67q58 0 103 40t59 101q31 124 -86 199l-70 45q-50 -32 -82.5 -68t-44.5 -94zM727 1004q-17 -66 6.5 -112t83.5 -83l31 -18
q85 55 104 141q20 90 -6 143t-82 55q-46 0 -85.5 -35.5t-51.5 -90.5z" />
    <glyph glyph-name="uni2468" unicode="&#x2468;" horiz-adv-x="1564" 
d="M721 -4q-149 0 -276.5 56.5t-214.5 153t-131 230.5t-31 285q13 147 80.5 280t171 228.5t242 152t286.5 56.5q195 0 350 -95.5t234.5 -260t62.5 -361.5q-17 -201 -126 -367.5t-280.5 -262t-367.5 -95.5zM115 721q-16 -189 57.5 -345t219.5 -245.5t333 -89.5
q185 0 345.5 89.5t262 245.5t117.5 345q12 138 -28.5 262.5t-121 214.5t-199.5 142.5t-257 52.5q-187 0 -349 -89.5t-263 -243.5t-117 -339zM498 285l4 24q111 11 221.5 105t171.5 252q-78 -63 -172 -66q-101 -2 -158.5 82t-34.5 199q22 115 115 197t211 83
q132 3 197.5 -102.5t33.5 -272.5q-28 -131 -111.5 -245t-210.5 -184.5t-267 -71.5zM682 907q-20 -117 12 -187.5t97 -68.5q63 0 120 60q16 47 29 110q27 146 0.5 230t-94.5 84q-55 -2 -100.5 -63.5t-63.5 -164.5z" />
    <glyph glyph-name="uni24EA" unicode="&#x24ea;" horiz-adv-x="1564" 
d="M721 -4q-149 0 -276.5 56.5t-214.5 153t-131 230.5t-31 285q13 147 80.5 280t171 228.5t242 152t286.5 56.5q195 0 350 -95.5t234.5 -260t62.5 -361.5q-17 -201 -126 -367.5t-280.5 -262t-367.5 -95.5zM115 721q-16 -189 57.5 -345t219.5 -245.5t333 -89.5
q185 0 345.5 89.5t262 245.5t117.5 345q12 138 -28.5 262.5t-121 214.5t-199.5 142.5t-257 52.5q-187 0 -349 -89.5t-263 -243.5t-117 -339zM471 721q42 204 158 321t245 117q128 0 193 -119t23 -321q-44 -205 -157.5 -325t-238.5 -120q-135 0 -200.5 122.5t-22.5 324.5z
M610 657q-28 -154 -1 -258.5t108 -91.5q74 10 141.5 154t93.5 319q15 108 12.5 188t-33 123t-87.5 33q-51 -7 -99.5 -79t-82.5 -174t-52 -214z" />
    <glyph glyph-name="uni24FF" unicode="&#x24ff;" horiz-adv-x="1564" 
d="M721 0q-197 0 -352.5 95t-234.5 260.5t-62 365.5q17 196 125.5 359.5t281 258.5t369.5 95q194 0 348 -95t233 -258.5t62 -359.5q-17 -200 -125.5 -365.5t-279 -260.5t-365.5 -95zM471 721q-43 -202 22.5 -324.5t200.5 -122.5q125 0 238.5 120t157.5 325q42 202 -23 321
t-193 119q-129 0 -245 -117t-158 -321zM610 657q18 112 52 214t82.5 174t99.5 79q57 10 87.5 -33t33 -123t-12.5 -188q-26 -175 -93.5 -319t-141.5 -154q-81 -13 -108 91.5t1 258.5z" />
    <glyph glyph-name="uni25CC" unicode="&#x25cc;" horiz-adv-x="1785" 
d="M1321 330q-27 17 -28.5 49t22.5 61q24 30 57 38.5t58 -9.5q27 -17 29.5 -49.5t-21.5 -61.5q-23 -30 -57.5 -38t-59.5 10zM176 717q6 34 35 57.5t63 22.5q34 0 52.5 -23t11.5 -57q-8 -34 -36 -57.5t-60 -22.5q-36 -1 -55 22.5t-11 57.5zM197 358q-12 29 3.5 61.5
t49.5 49.5q32 17 62 8t42 -39q9 -30 -6 -61.5t-47 -46.5q-34 -18 -64.5 -10t-39.5 38zM348 1075q24 30 57 39t60 -8q26 -19 27.5 -50.5t-21.5 -60.5q-23 -31 -56.5 -40t-58.5 10q-27 17 -29.5 49t21.5 61zM397 207q23 29 56 37.5t59 -6.5q27 -19 28.5 -50.5t-22.5 -60.5
q-23 -31 -56.5 -39.5t-58.5 8.5q-28 17 -29.5 49.5t23.5 61.5zM614 1227q-13 28 3 60t49 50q32 19 63.5 10t40.5 -40q10 -29 -5 -60.5t-48 -50.5q-32 -16 -63 -7.5t-40 38.5zM676 82q7 34 35.5 57t62.5 23t52.5 -23t11.5 -57q-6 -34 -34.5 -58t-62.5 -24t-53 24t-12 58z
M946 1354q7 34 35.5 57t62.5 23t53 -23t13 -57q-7 -35 -35.5 -58.5t-62.5 -23.5t-53.5 23.5t-12.5 58.5zM1016 127q-10 29 5 60.5t48 50.5q32 17 62.5 8.5t39.5 -39.5q12 -29 -3.5 -61t-47.5 -50q-34 -17 -64.5 -8.5t-39.5 39.5zM1268 1309q22 29 55 37t59 -9t28 -48.5
t-21 -59.5q-23 -30 -57 -39.5t-60 6.5q-27 19 -28.5 50.5t24.5 62.5zM1432 995q-11 30 4.5 62t48.5 47q32 18 62.5 9.5t41.5 -38.5t-4.5 -61.5t-48.5 -46.5q-34 -18 -63.5 -10t-40.5 38zM1448 717q8 34 35.5 57.5t60.5 22.5q35 1 53.5 -22.5t12.5 -57.5q-7 -34 -37 -58
t-62 -22q-34 0 -52 23t-11 57z" />
    <glyph glyph-name="uni25CF" unicode="&#x25cf;" horiz-adv-x="1693" 
d="M766 0q-148 0 -273.5 56t-209.5 152t-123.5 229.5t-22.5 283.5q17 147 88 278.5t177 227t245 151.5t287 56q194 0 345.5 -95t225.5 -258.5t51 -359.5q-23 -200 -136 -365.5t-286 -260.5t-368 -95z" />
    <glyph glyph-name="uni2776" unicode="&#x2776;" horiz-adv-x="1564" 
d="M721 0q-197 0 -352.5 95t-234.5 260.5t-62 365.5q17 196 125.5 359.5t281 258.5t369.5 95q194 0 348 -95t233 -258.5t62 -359.5q-17 -200 -125.5 -365.5t-279 -260.5t-365.5 -95zM520 295h385v24q-58 -2 -85.5 21t-14.5 82l162 758h-27q-38 -78 -118.5 -114t-174.5 -38
l-6 -27h78q36 0 46.5 -15t2.5 -54l-109 -510q-13 -60 -47 -82.5t-92 -20.5v-24z" />
    <glyph glyph-name="uni2777" unicode="&#x2777;" horiz-adv-x="1564" 
d="M721 0q-197 0 -352.5 95t-234.5 260.5t-62 365.5q17 196 125.5 359.5t281 258.5t369.5 95q194 0 348 -95t233 -258.5t62 -359.5q-17 -200 -125.5 -365.5t-279 -260.5t-365.5 -95zM438 291h486l102 252l-20 4q-30 -60 -55.5 -87.5t-64.5 -39.5t-110 -12h-188
q233 176 310 247q140 128 170 243q2 7 3 13q21 108 -32 179t-146 73q-98 3 -182.5 -60.5t-120.5 -170.5l28 -4q26 68 77 110.5t108 42.5q63 0 96.5 -51t13.5 -151q-25 -114 -133.5 -240.5t-335.5 -319.5z" />
    <glyph glyph-name="uni2778" unicode="&#x2778;" horiz-adv-x="1564" 
d="M721 0q-197 0 -352.5 95t-234.5 260.5t-62 365.5q17 196 125.5 359.5t281 258.5t369.5 95q194 0 348 -95t233 -258.5t62 -359.5q-17 -200 -125.5 -365.5t-279 -260.5t-365.5 -95zM467 444q0 -71 58.5 -117t146.5 -46q79 0 152 30t129 91.5t73 142.5q19 94 -22 163.5
t-127 92.5q66 14 116 60t62 104q20 85 -29.5 142.5t-130.5 59.5q-88 1 -159.5 -52.5t-108.5 -137.5l26 -6q32 58 75.5 86t86.5 28q55 0 84.5 -40.5t15.5 -112.5q-17 -71 -71 -111.5t-133 -48.5l-4 -24q94 0 137.5 -62.5t21.5 -163.5q-18 -82 -78.5 -147t-128.5 -66
q-36 0 -57.5 18.5t-19.5 47.5q1 15 13.5 39.5t12.5 46.5q0 28 -18 48.5t-47 20.5q-32 0 -54 -23.5t-22 -62.5z" />
    <glyph glyph-name="uni2779" unicode="&#x2779;" horiz-adv-x="1564" 
d="M721 0q-197 0 -352.5 95t-234.5 260.5t-62 365.5q17 196 125.5 359.5t281 258.5t369.5 95q194 0 348 -95t233 -258.5t62 -359.5q-17 -200 -125.5 -365.5t-279 -260.5t-365.5 -95zM406 494h327l-18 -74q-11 -60 -40.5 -82.5t-78.5 -20.5v-24h352v24q-51 -2 -75 21t-11 82
l17 74h112l19 90h-113l125 590h-27l-583 -652zM510 584l319 366l-79 -366h-240z" />
    </font>
</defs>
</svg>
