<?xml version="1.0" standalone="no"?>
<!DOCTYPE svg PUBLIC "-//W3C//DTD SVG 1.1//EN" "http://www.w3.org/Graphics/SVG/1.1/DTD/svg11.dtd" >
<svg xmlns="http://www.w3.org/2000/svg" xmlns:xlink="http://www.w3.org/1999/xlink" version="1.1">
<metadata>
Created by FontForge 20201107 at Tue Nov 12 13:53:39 2024
 By 
copyright missing
</metadata>
<defs>
<font id="Geist-Bold" horiz-adv-x="1228" >
  <font-face 
    font-family="Geist Bold"
    font-weight="700"
    font-stretch="normal"
    units-per-em="2048"
    panose-1="0 0 0 0 0 0 0 0 0 0"
    ascent="1638"
    descent="-410"
    x-height="1085"
    cap-height="1454"
    bbox="-84 -481 4788 1980"
    underline-thickness="102"
    underline-position="-255"
    unicode-range="U+0020-FF5D"
  />
<missing-glyph horiz-adv-x="880" 
d="M723 1454v-1761h-559v1761h559zM295 -186h291v59h-178l122 82h56v59h-291v-59h123l-123 -82v-59zM295 53h291v199h-291v-199zM295 358h291v199h-176v-98h61v41h57v-84h-176v141h-57v-199zM295 596h291v176h-58v-117h-233v-59zM295 696h176v123h115v60h-291v-60h115v-63
h-115v-60zM295 926h291v59h-115v123h-176v-182zM295 1155h291v57h-115v66h115v57h-291v-57h115v-66h-115v-57zM352 113v82h176v-82h-176zM352 985v64h58v-64h-58z" />
    <glyph glyph-name="f_f.liga" unicode="ff" horiz-adv-x="1654" 
d="M252 1092q0 181 92 271.5t285 90.5h221v-231h-174q-52 0 -83.5 -35t-31.5 -96v-52h428v52q0 181 92 271.5t285 90.5h221v-231h-174q-52 0 -83.5 -35t-31.5 -96v-52h273v-231h-273v-809h-309v809h-428v-809h-309v809h-160v231h160v52z" />
    <glyph glyph-name="t_t.liga" unicode="tt" horiz-adv-x="1681" 
d="M258 1331h311v-246h453v246h311v-246h285v-229h-285v-500q0 -125 119 -125h168v-231h-234q-364 0 -364 356v500h-453v-500q0 -125 119 -125h168v-231h-233q-365 0 -365 356v500h-176v229h176v246z" />
    <glyph glyph-name="fi.liga" unicode="fi" horiz-adv-x="1497" 
d="M252 1092q0 181 92 271.5t285 90.5h221v-231h-174q-52 0 -83.5 -35t-31.5 -96v-52h273v-231h-273v-809h-309v809h-160v231h160v52zM1049 1227v227h319v-227h-319zM1053 0v1085h311v-1085h-311z" />
    <glyph glyph-name="fl.liga" unicode="fl" horiz-adv-x="1558" 
d="M252 1092q0 181 92 271.5t285 90.5h221v-231h-174q-52 0 -83.5 -35t-31.5 -96v-52h273v-231h-273v-809h-309v809h-160v231h160v52zM1020 303v1151h311v-1139q0 -40 21 -62t61 -22h78v-231h-168q-138 0 -220.5 79.5t-82.5 223.5z" />
    <glyph glyph-name="hyphen_hyphen_hyphen_greater.liga" unicode="&#x2d;&#x2d;&#x2d;&#x3e;" horiz-adv-x="4915" 
d="M4788 725l-637 -637h-315l487 490h-4196v294h4200l-489 490h315z" />
    <glyph glyph-name="hyphen_hyphen_greater.liga" unicode="&#x2d;&#x2d;&#x3e;" horiz-adv-x="3686" 
d="M3559 725l-637 -637h-315l488 490h-2968v294h2972l-490 490h316z" />
    <glyph glyph-name="hyphen_greater.liga" unicode="&#x2d;&#x3e;" horiz-adv-x="2457" 
d="M2331 725l-637 -637h-316l488 490h-1739v294h1743l-490 490h316z" />
    <glyph glyph-name="less_hyphen.liga" unicode="&#x3c;&#x2d;" horiz-adv-x="2457" 
d="M127 725l635 637h315l-489 -490h1743v-294h-1739l487 -490h-315z" />
    <glyph glyph-name="less_hyphen_hyphen.liga" unicode="&#x3c;&#x2d;&#x2d;" horiz-adv-x="3686" 
d="M127 725l635 637h315l-489 -490h2971v-294h-2967l487 -490h-315z" />
    <glyph glyph-name="less_hyphen_hyphen_hyphen.liga" unicode="&#x3c;&#x2d;&#x2d;&#x2d;" horiz-adv-x="4915" 
d="M127 725l635 637h315l-489 -490h4200v-294h-4196l487 -490h-315z" />
    <glyph glyph-name="less_hyphen_greater.liga" unicode="&#x3c;&#x2d;&#x3e;" horiz-adv-x="3684" 
d="M3557 725l-637 -637h-313l488 490h-2503l487 -490h-315l-637 637l635 637h315l-489 -490h2511l-490 490h313z" />
    <glyph glyph-name=".notdef" horiz-adv-x="880" 
d="M723 1454v-1761h-559v1761h559zM295 -186h291v59h-178l122 82h56v59h-291v-59h123l-123 -82v-59zM295 53h291v199h-291v-199zM295 358h291v199h-176v-98h61v41h57v-84h-176v141h-57v-199zM295 596h291v176h-58v-117h-233v-59zM295 696h176v123h115v60h-291v-60h115v-63
h-115v-60zM295 926h291v59h-115v123h-176v-182zM295 1155h291v57h-115v66h115v57h-291v-57h115v-66h-115v-57zM352 113v82h176v-82h-176zM352 985v64h58v-64h-58z" />
    <glyph glyph-name=".null" horiz-adv-x="0" 
 />
    <glyph glyph-name="nonmarkingreturn" horiz-adv-x="682" 
 />
    <glyph glyph-name="space" unicode=" " horiz-adv-x="468" 
 />
    <glyph glyph-name="exclam" unicode="!" horiz-adv-x="524" 
d="M111 1454h311v-438q0 -79 -8 -171.5t-22 -206t-19 -171.5h-213q-5 58 -19 171.5t-22 206t-8 171.5v438zM98 0v305h330v-305h-330z" />
    <glyph glyph-name="quotedbl" unicode="&#x22;" horiz-adv-x="792" 
d="M469 1454h242v-170l-49 -395h-183zM84 1284v170h240l-9 -565h-182z" />
    <glyph glyph-name="numbersign" unicode="#" horiz-adv-x="1206" 
d="M98 0l52 334h-144l33 248h147l43 278h-147l33 248h151l53 344l289 2l-53 -346h215l53 344l291 2l-53 -346h133l-33 -248h-139l-43 -278h137l-31 -248h-145l-51 -334h-287l51 334h-217l-51 -334h-287zM475 582h215l43 278h-217z" />
    <glyph glyph-name="dollar" unicode="$" horiz-adv-x="1390" 
d="M418 496q18 -94 71 -157t140 -87v373q-240 60 -368 164t-128 268q0 186 135 301t361 127v164h168v-170q197 -31 321 -161t146 -325l-312 -12q-9 79 -49.5 136t-105.5 87v-362q233 -58 361 -166t128 -268q0 -187 -136 -301.5t-353 -129.5v-163h-168v168
q-227 25 -368.5 157t-156.5 338zM451 1053q3 -62 49.5 -101t128.5 -65v338q-83 -11 -132 -57.5t-46 -114.5zM797 242q82 11 127.5 50.5t44.5 104.5q-2 60 -42.5 102t-129.5 76v-333z" />
    <glyph glyph-name="percent" unicode="%" horiz-adv-x="1722" 
d="M1239 1487h313l-1060 -1512h-314zM80 1100q0 151 96.5 253.5t235.5 102.5t235 -102.5t96 -253.5t-96 -254t-235 -103t-235.5 103t-96.5 254zM293 1100q0 -86 32 -136.5t87 -50.5q57 0 88.5 50t31.5 137t-31.5 136.5t-88.5 49.5q-55 0 -87 -50t-32 -136zM979 356
q0 152 96 254.5t236 102.5q139 0 235 -103t96 -254t-96 -253.5t-235 -102.5q-140 0 -236 102t-96 254zM1192 356q0 -87 31 -136.5t88 -49.5t88 49.5t31 136.5t-31.5 137t-87.5 50t-87.5 -50t-31.5 -137z" />
    <glyph glyph-name="ampersand" unicode="&#x26;" horiz-adv-x="1452" 
d="M670 1487q-118 5 -219.5 -40.5t-162.5 -131.5t-61 -193q0 -159 150 -325l-21 -15q-153 -90 -217.5 -178.5t-64.5 -212.5q0 -196 163.5 -306t440.5 -110q192 0 326 86l51 -61h364l-198 229q69 77 112.5 186.5t50.5 227.5l-317 31q2 -63 -10 -122.5t-37 -94.5l-229 286
q265 142 299 334q15 79 -12.5 153t-85.5 129t-142.5 89.5t-179.5 38.5zM389 410q-2 108 148 198l262 -323q-52 -49 -158 -49q-118 0 -184 47.5t-68 126.5zM545 1100q-2 53 36 89.5t93 33.5q50 -3 78 -36.5t28 -86.5q0 -46 -40.5 -93t-114.5 -83q-80 101 -80 176z" />
    <glyph glyph-name="quotesingle" unicode="'" horiz-adv-x="407" 
d="M84 1454h240v-172l-29 -393h-182l-29 393v172z" />
    <glyph glyph-name="parenleft" unicode="(" horiz-adv-x="712" 
d="M633 1536q-494 -880 0 -1761h-277q-278 431 -278 880.5t278 880.5h277z" />
    <glyph glyph-name="parenright" unicode=")" horiz-adv-x="712" 
d="M356 1536q278 -431 278 -880.5t-278 -880.5h-276q494 881 0 1761h276z" />
    <glyph glyph-name="asterisk" unicode="*" horiz-adv-x="872" 
d="M793 1210v-180l-209 4l110 -178l-157 -90l-101 182l-100 -182l-158 90l111 178l-209 -4v180l209 -4l-111 178l158 91l100 -183l101 183l157 -91l-110 -178z" />
    <glyph glyph-name="plus" unicode="+" horiz-adv-x="1134" 
d="M80 713h360v360h252v-360h363v-252h-363v-363h-252v363h-360v252z" />
    <glyph glyph-name="comma" unicode="," horiz-adv-x="489" 
d="M410 0l-142 -324h-166l93 324h-115v305h330v-305z" />
    <glyph glyph-name="hyphen" unicode="-" horiz-adv-x="864" 
d="M80 723h704v-250h-704v250z" />
    <glyph glyph-name="period" unicode="." horiz-adv-x="489" 
d="M80 305h330v-305h-330v305z" />
    <glyph glyph-name="slash" unicode="/" horiz-adv-x="1071" 
d="M63 -225l605 1761h311l-606 -1761h-310z" />
    <glyph glyph-name="zero" unicode="0" horiz-adv-x="1427" 
d="M713 -33q-290 0 -454.5 205.5t-164.5 552.5q0 348 164.5 555t454.5 207q291 0 455.5 -206.5t164.5 -555.5q0 -347 -164.5 -552.5t-455.5 -205.5zM416 725q0 -241 76 -367.5t221 -126.5q146 0 222.5 126t76.5 368q0 243 -76.5 370.5t-222.5 127.5q-145 0 -221 -127.5
t-76 -370.5z" />
    <glyph glyph-name="one" unicode="1" horiz-adv-x="919" 
d="M190 1186q137 0 203.5 65t67.5 203h244v-1454h-312v956h-315v230h112z" />
    <glyph glyph-name="two" unicode="2" horiz-adv-x="1337" 
d="M129 989q19 220 173 359t390 139q228 0 376.5 -125.5t148.5 -317.5q0 -65 -21 -124t-53.5 -104t-84.5 -90t-101.5 -77.5t-116.5 -70.5q-43 -24 -86.5 -52t-106.5 -74.5t-104.5 -96.5t-44.5 -91h723v-264h-1102q0 125 28.5 231.5t74 184.5t118.5 149t145 121t170 105
q122 76 181 134.5t59 123.5q0 75 -57 124.5t-146 49.5q-98 0 -160 -64.5t-81 -187.5z" />
    <glyph glyph-name="three" unicode="3" horiz-adv-x="1337" 
d="M653 877q90 -2 154.5 45.5t64.5 142.5q0 71 -59.5 114.5t-159.5 43.5q-89 0 -145.5 -39.5t-65.5 -106.5l-315 17q20 177 166 285t366 108q246 0 390.5 -103t144.5 -276q0 -253 -307 -322q172 -37 264 -136.5t92 -250.5q0 -198 -158 -315t-426 -117q-246 0 -400 126
t-165 333l318 12q10 -99 83.5 -153t166.5 -54q107 0 183.5 56t76.5 162q0 103 -79.5 159.5t-189.5 53.5l-125 -3v220z" />
    <glyph glyph-name="four" unicode="4" horiz-adv-x="1392" 
d="M1143 1454v-928h155v-264h-155v-262h-314v262h-735v262l672 930h377zM436 526h393v533z" />
    <glyph glyph-name="five" unicode="5" horiz-adv-x="1374" 
d="M1159 1454v-264h-653l-49 -371q49 70 143 110t201 40q201 0 330 -134t129 -341q0 -237 -154.5 -382t-407.5 -145q-242 0 -404 120t-179 312l315 17q18 -85 91 -135t169 -50q109 0 179.5 72t70.5 182q0 115 -71.5 184.5t-188.5 69.5q-82 0 -147.5 -37t-88.5 -98h-313
l111 850h917z" />
    <glyph glyph-name="six" unicode="6" horiz-adv-x="1351" 
d="M942 1090q-57 139 -223 139q-148 0 -229.5 -125t-90.5 -346q58 99 149.5 149.5t205.5 50.5q217 0 351 -133t134 -350q0 -158 -74 -274.5t-201 -175t-290 -58.5q-247 0 -412 189q-147 170 -147 495q0 138 21.5 259.5t69 228.5t117.5 183.5t173 120.5t229 44
q186 0 325 -101.5t181 -279.5zM428 475q-2 -115 69 -189.5t183 -74.5q108 0 178 75t70 189t-67 187t-173 73q-114 0 -186 -73t-74 -187z" />
    <glyph glyph-name="seven" unicode="7" horiz-adv-x="1220" 
d="M74 1454h1073v-235q-209 -246 -321.5 -553.5t-100.5 -665.5h-317q0 324 118 631.5t332 558.5h-784v264z" />
    <glyph glyph-name="eight" unicode="8" horiz-adv-x="1366" 
d="M684 -33q-280 0 -445 116.5t-165 315.5q0 140 83.5 242.5t235.5 146.5q-122 38 -186 114.5t-64 184.5q0 178 147.5 289t393.5 111t393.5 -111t147.5 -289q0 -108 -65 -184t-187 -115q153 -46 237 -148t84 -241q0 -199 -165.5 -315.5t-444.5 -116.5zM395 444
q0 -97 79 -155t210 -58q129 0 208 58t79 155q0 98 -79 158t-208 60q-130 0 -209.5 -60t-79.5 -158zM463 1055q0 -77 59.5 -122.5t161.5 -45.5q101 0 160 45.5t59 122.5t-59 122.5t-160 45.5q-102 0 -161.5 -45.5t-59.5 -122.5z" />
    <glyph glyph-name="nine" unicode="9" horiz-adv-x="1361" 
d="M115 963q0 161 74.5 281t201.5 181.5t287 61.5q260 0 424 -199q145 -177 145 -510q0 -137 -19.5 -255t-64 -222t-112 -177t-168.5 -115t-228 -42q-192 0 -326 94.5t-188 266.5l293 18q31 -58 85.5 -89.5t125.5 -31.5q151 0 232 116.5t90 326.5q-117 -197 -367 -197
q-211 0 -348 136.5t-137 355.5zM426 967q0 -118 66 -195.5t174 -77.5q115 0 185.5 77.5t72.5 195.5q2 119 -67 197.5t-183 78.5q-111 0 -179.5 -78.5t-68.5 -197.5z" />
    <glyph glyph-name="colon" unicode=":" horiz-adv-x="632" 
d="M152 305h329v-305h-329v305zM152 662v305h329v-305h-329z" />
    <glyph glyph-name="semicolon" unicode=";" horiz-adv-x="632" 
d="M152 967h329v-305h-329v305zM152 0v305h329v-305l-141 -324h-166l92 324h-114z" />
    <glyph glyph-name="less" unicode="&#x3c;" horiz-adv-x="1099" 
d="M1020 1151v-270l-668 -281l668 -283v-270l-940 397v310z" />
    <glyph glyph-name="equal" unicode="=" horiz-adv-x="1277" 
d="M152 961h974v-252h-974v252zM152 240v252h974v-252h-974z" />
    <glyph glyph-name="greater" unicode="&#x3e;" horiz-adv-x="1107" 
d="M84 1151l940 -397v-310l-940 -397v270l668 283l-668 281v270z" />
    <glyph glyph-name="question" unicode="?" horiz-adv-x="1220" 
d="M449 465q0 147 42.5 236.5t153.5 164.5q18 13 51.5 34t51 34t38.5 33t30 45t9 57q0 73 -56.5 117.5t-150.5 44.5q-87 0 -146 -60t-71 -159l-321 12q20 205 166.5 334t367.5 129q232 0 379.5 -117.5t147.5 -300.5q0 -109 -54.5 -189.5t-181.5 -158.5
q-82 -51 -114.5 -107.5t-32.5 -148.5h-309zM436 0v305h330v-305h-330z" />
    <glyph glyph-name="at" unicode="@" horiz-adv-x="1968" 
d="M1227 1004h190l-35 -437q-15 -171 37 -198q21 -21 50 -21.5t58 20t54.5 56.5t43 94.5t20.5 128.5q8 166 -64 300t-208.5 210t-311.5 76q-191 0 -349.5 -81t-253 -222.5t-102.5 -315.5q-6 -125 25 -230t92 -180.5t151.5 -124t200.5 -64.5t242 1.5t274 69.5l50 -215
q-176 -66 -348.5 -84t-318.5 10t-269.5 98.5t-208 173.5t-128 243.5t-34.5 301.5q10 174 92 329.5t214 267.5t310 177.5t373 65.5q183 0 341 -63t265.5 -170t162 -256.5t38.5 -315.5q-21 -248 -176 -379q-114 -96 -253 -95q-124 1 -195 79q-39 43 -50 102q-37 -84 -120 -135
t-185 -51q-191 0 -290 122t-79 302q20 187 139 312.5t308 125.5q79 0 142 -28.5t98 -79.5zM788 594q-10 -104 33.5 -173t139.5 -69q94 0 149 69t66 173q8 105 -36 175.5t-139 70.5t-149 -69.5t-64 -176.5z" />
    <glyph glyph-name="A" unicode="A" horiz-adv-x="1519" 
d="M51 0l524 1454h369l524 -1454h-323l-107 307h-557l-106 -307h-324zM569 567h381l-190 559z" />
    <glyph glyph-name="B" unicode="B" horiz-adv-x="1439" 
d="M152 0v1454h530q299 0 446.5 -98t147.5 -305q0 -131 -78 -208t-223 -89q177 -13 269.5 -101t92.5 -241q0 -201 -146 -306.5t-427 -105.5h-612zM465 256h307q116 0 182 46t66 136q0 92 -66.5 139.5t-181.5 47.5h-307v-369zM465 854h244q118 0 183.5 43.5t65.5 128.5
q0 172 -249 172h-244v-344z" />
    <glyph glyph-name="C" unicode="C" horiz-adv-x="1492" 
d="M1417 522q-44 -264 -208.5 -409.5t-424.5 -145.5q-158 0 -290 58t-221.5 159.5t-139 240.5t-49.5 300t49.5 301t139 242t221.5 160.5t290 58.5q251 0 415.5 -140t211.5 -393l-326 -14q-26 135 -106 209t-201 74q-124 0 -209.5 -66.5t-124 -176.5t-38.5 -255
q0 -221 94.5 -357.5t277.5 -136.5q126 0 207.5 80t104.5 226z" />
    <glyph glyph-name="D" unicode="D" horiz-adv-x="1472" 
d="M653 1454q353 0 544.5 -189.5t191.5 -539.5q0 -349 -187 -537t-536 -188h-514v1454h501zM465 264h188q212 0 315 114t103 347q0 236 -103 350.5t-315 114.5h-188v-926z" />
    <glyph glyph-name="E" unicode="E" horiz-adv-x="1273" 
d="M152 1454h1013v-264h-700v-332h676v-258h-676v-336h717v-264h-1030v1454z" />
    <glyph glyph-name="F" unicode="F" horiz-adv-x="1239" 
d="M152 1454h1003v-264h-690v-350h653v-258h-653v-582h-313v1454z" />
    <glyph glyph-name="G" unicode="G" horiz-adv-x="1507" 
d="M1413 0h-190l-17 213q-51 -114 -168.5 -180t-269.5 -66q-203 0 -360 100t-240.5 272t-83.5 386q0 161 49.5 301t139 242t221.5 160.5t290 58.5q247 0 409.5 -135t215.5 -375l-324 -14q-30 126 -107.5 193t-199.5 67q-124 0 -209.5 -66.5t-124 -176.5t-38.5 -255
q0 -221 94.5 -357.5t277.5 -136.5q137 0 219 80t101 215h-320v232h635v-758z" />
    <glyph glyph-name="H" unicode="H" horiz-adv-x="1470" 
d="M152 0v1454h313v-592h541v592h313v-1454h-313v600h-541v-600h-313z" />
    <glyph glyph-name="I" unicode="I" horiz-adv-x="616" 
d="M152 1454h313v-1454h-313v1454z" />
    <glyph glyph-name="J" unicode="J" horiz-adv-x="1284" 
d="M416 532q0 -147 55 -224t160 -77q106 0 162.5 75t56.5 216v932h313v-932q0 -251 -148 -403t-392 -152q-228 0 -374.5 153.5t-148.5 393.5z" />
    <glyph glyph-name="K" unicode="K" horiz-adv-x="1443" 
d="M152 1454h313v-631l524 631h365l-535 -641l567 -813h-354l-418 604l-149 -176v-428h-313v1454z" />
    <glyph glyph-name="L" unicode="L" horiz-adv-x="1206" 
d="M152 0v1454h313v-1190h670v-264h-983z" />
    <glyph glyph-name="M" unicode="M" horiz-adv-x="1873" 
d="M152 1454h417l367 -1057l369 1057h417v-1454h-313v944l-338 -940h-268l-338 940v-944h-313v1454z" />
    <glyph glyph-name="N" unicode="N" horiz-adv-x="1531" 
d="M152 1454h344l571 -995v995h313v-1454h-356l-559 961v-961h-313v1454z" />
    <glyph glyph-name="O" unicode="O" horiz-adv-x="1583" 
d="M791 -33q-330 0 -518.5 203t-188.5 555q0 354 188 558t519 204q332 0 520 -203.5t188 -558.5q0 -352 -188 -555t-520 -203zM408 725q0 -232 101 -363t282 -131q184 0 285.5 130.5t101.5 363.5q0 235 -101.5 366.5t-285.5 131.5q-181 0 -282 -131.5t-101 -366.5z" />
    <glyph glyph-name="P" unicode="P" horiz-adv-x="1376" 
d="M733 1454q262 0 411.5 -127t149.5 -348q0 -223 -149.5 -350t-411.5 -127h-268v-502h-313v1454h581zM465 766h252q123 0 188.5 54t65.5 159q0 104 -65 157.5t-189 53.5h-252v-424z" />
    <glyph glyph-name="Q" unicode="Q" horiz-adv-x="1570" 
d="M784 -33q-158 0 -290 58t-221.5 159.5t-139 240.5t-49.5 300t49.5 301t139 242t221.5 160.5t290 58.5q159 0 291.5 -58.5t222.5 -160.5t139.5 -242t49.5 -301q0 -192 -69 -351.5t-195 -260.5l190 -240h-242l-114 143q-119 -49 -273 -49zM406 725q0 -101 22.5 -188.5
t67.5 -156.5t119 -109t169 -40q40 0 90 11l-196 250h242l114 -146q63 63 97 163t34 216q0 102 -23 190t-68 157.5t-119.5 110t-170.5 40.5q-95 0 -169 -40.5t-119 -110t-67.5 -157.5t-22.5 -190z" />
    <glyph glyph-name="R" unicode="R" horiz-adv-x="1427" 
d="M788 1454q233 0 379 -115.5t146 -320.5q0 -134 -69.5 -224.5t-188.5 -125.5q114 -15 169 -75t66 -177l35 -416h-315l-27 367q-7 91 -63 127t-185 36h-270v-530h-313v1454h636zM465 795h280q119 0 182.5 50.5t63.5 145.5q0 97 -63.5 148t-182.5 51h-280v-395z" />
    <glyph glyph-name="S" unicode="S" horiz-adv-x="1390" 
d="M418 496q22 -121 103.5 -189.5t215.5 -68.5q107 0 170 41.5t62 117.5q-1 79 -75 130t-245 94q-251 59 -383.5 163t-132.5 273q0 197 150 313.5t399 116.5q244 0 400.5 -135t181.5 -359l-312 -12q-14 113 -87.5 179.5t-188.5 66.5q-102 0 -165 -48t-60 -126q1 -30 13 -55
t36 -44.5t48 -33.5t64 -27.5t68.5 -21t75.5 -19.5q253 -56 391.5 -166t138.5 -278q0 -201 -157.5 -317t-399.5 -116q-268 0 -438 136t-187 366z" />
    <glyph glyph-name="T" unicode="T" horiz-adv-x="1294" 
d="M1239 1454v-264h-434v-1190h-316v1190h-434v264h1184z" />
    <glyph glyph-name="U" unicode="U" horiz-adv-x="1441" 
d="M1321 526q0 -258 -161.5 -408.5t-438.5 -150.5t-438.5 150.5t-161.5 408.5v930h313v-930q0 -145 74.5 -220t212.5 -75q137 0 212 75.5t75 219.5v930h313v-930z" />
    <glyph glyph-name="V" unicode="V" horiz-adv-x="1517" 
d="M51 1454h324l385 -1102l383 1102h323l-524 -1454h-367z" />
    <glyph glyph-name="W" unicode="W" horiz-adv-x="2029" 
d="M51 1454h326l248 -1020l252 1020h274l254 -1020l246 1020h327l-393 -1454h-334l-237 907l-236 -907h-336z" />
    <glyph glyph-name="X" unicode="X" horiz-adv-x="1472" 
d="M1055 1454h356l-491 -725l495 -729h-360l-320 496l-317 -496h-361l498 731l-494 723h361l317 -487z" />
    <glyph glyph-name="Y" unicode="Y" horiz-adv-x="1423" 
d="M51 1454h344l318 -590l317 590h342l-502 -889v-565h-313v565z" />
    <glyph glyph-name="Z" unicode="Z" horiz-adv-x="1222" 
d="M1149 1214l-725 -950h741v-264h-1108v262l705 928h-662v264h1049v-240z" />
    <glyph glyph-name="bracketleft" unicode="[" horiz-adv-x="784" 
d="M80 1536h625v-256h-330v-1249h330v-256h-625v1761z" />
    <glyph glyph-name="backslash" unicode="\" horiz-adv-x="1064" 
d="M991 -225h-309l-606 1761h311z" />
    <glyph glyph-name="bracketright" unicode="]" horiz-adv-x="784" 
d="M705 1536v-1761h-625v256h330v1249h-330v256h625z" />
    <glyph glyph-name="asciicircum" unicode="^" horiz-adv-x="860" 
d="M555 784l-125 373l-125 -373h-225l205 594h290l205 -594h-225z" />
    <glyph glyph-name="underscore" unicode="_" horiz-adv-x="1157" 
d="M80 -76h997v-252h-997v252z" />
    <glyph glyph-name="grave" unicode="`" horiz-adv-x="542" 
d="M80 1513h254l129 -266h-197z" />
    <glyph glyph-name="a" unicode="a" horiz-adv-x="1267" 
d="M96 750q32 174 162.5 267t343.5 93q247 0 373.5 -120t126.5 -353v-340q0 -50 17 -68t50 -18h41v-211l-55 -2q-101 -3 -146 6q-145 27 -167 160q-40 -87 -135 -138t-238 -51q-168 0 -278.5 85t-110.5 225q0 75 26.5 129.5t82.5 92.5t127 63t176 46l299 60
q-1 118 -48 174.5t-141 56.5q-157 0 -194 -174zM397 297q0 -53 44 -87t124 -34q103 0 166.5 76.5t63.5 218.5v12l-181 -32q-49 -10 -72 -15.5t-57 -17.5t-49 -26t-27 -38.5t-12 -56.5z" />
    <glyph glyph-name="b" unicode="b" horiz-adv-x="1302" 
d="M133 1454h311v-518q47 83 131.5 128.5t188.5 45.5q212 0 335.5 -153t123.5 -414t-123.5 -414.5t-335.5 -153.5q-109 0 -195.5 48t-132.5 133l-6 -156h-297v1454zM426 543q0 -151 65 -241.5t175 -90.5q108 0 174.5 91t66.5 241q0 155 -65 245.5t-176 90.5
q-109 0 -174.5 -90.5t-65.5 -245.5z" />
    <glyph glyph-name="c" unicode="c" horiz-adv-x="1232" 
d="M850 670q-13 96 -71 149t-142 53q-115 0 -177.5 -86t-62.5 -243t62.5 -243.5t177.5 -86.5q88 0 146 54.5t71 158.5l320 -12q-22 -201 -170 -320t-367 -119q-252 0 -404.5 155t-152.5 413t152.5 412.5t404.5 154.5q214 0 361.5 -115.5t168.5 -310.5z" />
    <glyph glyph-name="d" unicode="d" horiz-adv-x="1302" 
d="M1169 1454v-1454h-297l-6 156q-46 -85 -132.5 -133t-194.5 -48q-212 0 -335.5 153.5t-123.5 414.5t123.5 414t335.5 153q103 0 187.5 -45.5t131.5 -128.5v518h311zM395 543q0 -150 67 -241t175 -91q110 0 175 90.5t65 241.5q0 155 -65.5 245.5t-174.5 90.5
q-111 0 -176.5 -90.5t-65.5 -245.5z" />
    <glyph glyph-name="e" unicode="e" horiz-adv-x="1249" 
d="M80 543q0 258 152.5 412.5t404.5 154.5q233 0 382 -156t148 -434v-57h-764q6 -122 68 -190t166 -68q68 0 123.5 36t81.5 99l311 -23q-49 -158 -189 -250t-327 -92q-252 0 -404.5 155t-152.5 413zM406 649h448q-11 117 -71 174.5t-146 57.5q-97 0 -158 -62t-73 -170z" />
    <glyph glyph-name="f" unicode="f" horiz-adv-x="919" 
d="M252 1092q0 181 92 271.5t285 90.5h221v-231h-174q-52 0 -83.5 -35t-31.5 -96v-52h273v-231h-273v-809h-309v809h-160v231h160v52z" />
    <glyph glyph-name="g" unicode="g" horiz-adv-x="1302" 
d="M551 51q-212 0 -341.5 141t-129.5 373q0 246 129 395.5t340 149.5q105 0 187.5 -50t125.5 -140v165h305v-954q0 -214 -149.5 -338.5t-392.5 -124.5q-189 0 -327.5 83.5t-186.5 223.5l315 21q22 -53 75.5 -83t127.5 -30q110 0 168.5 54.5t58.5 160.5v117
q-38 -75 -121.5 -119.5t-183.5 -44.5zM397 569q0 -140 65 -223.5t171 -83.5q107 0 170 83t65 224q1 141 -62.5 224.5t-172.5 83.5t-172.5 -83.5t-63.5 -224.5z" />
    <glyph glyph-name="h" unicode="h" horiz-adv-x="1251" 
d="M133 1454h311v-504q90 160 310 160q171 0 267.5 -114.5t96.5 -297.5v-698h-309v590q0 136 -37.5 202t-128.5 66q-98 0 -148.5 -69t-50.5 -199v-590h-311v1454z" />
    <glyph glyph-name="i" unicode="i" horiz-adv-x="577" 
d="M133 1085h311v-1085h-311v1085zM129 1227v227h320v-227h-320z" />
    <glyph glyph-name="j" unicode="j" horiz-adv-x="677" 
d="M545 55q0 -362 -365 -362h-186v231h127q53 0 84 35.5t31 95.5v1030h309v-1030zM229 1227v227h320v-227h-320z" />
    <glyph glyph-name="k" unicode="k" horiz-adv-x="1327" 
d="M133 1454h311v-809l402 440h366l-424 -444l443 -641h-338l-301 465l-148 -160v-305h-311v1454z" />
    <glyph glyph-name="l" unicode="l" horiz-adv-x="671" 
d="M133 1454h311v-1139q0 -40 21 -62t61 -22h78v-231h-168q-138 0 -220.5 79.5t-82.5 223.5v1151z" />
    <glyph glyph-name="m" unicode="m" horiz-adv-x="1843" 
d="M133 1085h279l8 -170q40 93 118.5 144t182.5 51q113 0 193.5 -58.5t115.5 -164.5q41 111 122.5 167t195.5 56q169 0 265.5 -106.5t96.5 -305.5v-698h-309v596q0 268 -156 268q-186 0 -186 -268v-596h-275v596q0 268 -153 268q-187 0 -187 -268v-596h-311v1085z" />
    <glyph glyph-name="n" unicode="n" horiz-adv-x="1251" 
d="M133 1085h279l8 -174q82 199 323 199q177 0 276 -110.5t99 -301.5v-698h-309v596q0 136 -37.5 202t-128.5 66q-98 0 -148.5 -69t-50.5 -199v-596h-311v1085z" />
    <glyph glyph-name="o" unicode="o" horiz-adv-x="1273" 
d="M637 -25q-252 0 -404.5 155t-152.5 413t152.5 412.5t404.5 154.5t404.5 -154.5t152.5 -412.5t-152.5 -413t-404.5 -155zM397 543q0 -157 62.5 -243.5t177.5 -86.5t177.5 86.5t62.5 243.5t-62.5 243t-177.5 86t-177.5 -86t-62.5 -243z" />
    <glyph glyph-name="p" unicode="p" horiz-adv-x="1302" 
d="M133 -307v1392h297l6 -159q44 89 127 136.5t197 47.5q112 0 201 -43.5t146 -120.5t86.5 -179.5t29.5 -223.5q0 -163 -50.5 -289t-157 -202.5t-255.5 -76.5q-106 0 -187.5 45.5t-128.5 131.5v-459h-311zM424 543q0 -143 61.5 -237.5t178.5 -94.5q118 0 179.5 94.5
t61.5 237.5q0 91 -25.5 164t-81.5 120t-134 47q-79 0 -134.5 -47t-80.5 -120t-25 -164z" />
    <glyph glyph-name="q" unicode="q" horiz-adv-x="1302" 
d="M1169 -307h-311v459q-47 -86 -128 -131.5t-187 -45.5q-149 0 -255.5 76.5t-157 202.5t-50.5 289q0 121 29.5 223.5t86.5 179.5t146 120.5t201 43.5q114 0 196.5 -47t126.5 -137l6 159h297v-1392zM397 543q0 -143 62 -237.5t180 -94.5q117 0 178.5 94.5t61.5 237.5
q0 91 -25 164t-80.5 120t-134.5 47q-78 0 -134 -46.5t-82 -120t-26 -164.5z" />
    <glyph glyph-name="r" unicode="r" horiz-adv-x="874" 
d="M133 1085h295l6 -217q33 110 96.5 163.5t165.5 53.5h99v-231h-103q-131 0 -189.5 -61t-58.5 -189v-604h-311v1085z" />
    <glyph glyph-name="s" unicode="s" horiz-adv-x="1181" 
d="M780 733q-12 73 -68 117.5t-128 44.5q-71 0 -117 -35t-43 -92q5 -101 199 -131q250 -40 363.5 -116t113.5 -224q0 -157 -133 -239.5t-351 -82.5q-238 0 -381 98t-155 271l311 16q14 -79 70 -123t149 -44q67 0 119.5 28t52.5 82q-1 40 -33 67t-60.5 35.5t-96.5 23.5
q-14 3 -21 5q-243 46 -355 118t-112 214q0 163 130 254.5t362 91.5q205 0 336.5 -98t159.5 -269z" />
    <glyph glyph-name="t" unicode="t" horiz-adv-x="917" 
d="M258 1331h311v-246h285v-229h-285v-500q0 -125 119 -125h168v-231h-233q-365 0 -365 356v500h-176v229h176v246z" />
    <glyph glyph-name="u" unicode="u" horiz-adv-x="1245" 
d="M1110 0h-281l-6 170q-82 -195 -319 -195q-174 0 -272.5 111t-98.5 301v698h311v-596q0 -136 36 -202t126 -66q95 0 145 69.5t50 198.5v596h309v-1085z" />
    <glyph glyph-name="v" unicode="v" horiz-adv-x="1249" 
d="M1206 1085l-403 -1085h-357l-403 1085h317l265 -776l262 776h319z" />
    <glyph glyph-name="w" unicode="w" horiz-adv-x="1740" 
d="M995 1085l207 -727l201 727h295l-330 -1085h-297l-201 680l-200 -680h-297l-330 1085h295l201 -727l206 727h250z" />
    <glyph glyph-name="x" unicode="x" horiz-adv-x="1333" 
d="M889 1087h338l-379 -536l391 -551h-340l-231 354l-234 -354h-340l395 553l-380 534h337l222 -335z" />
    <glyph glyph-name="y" unicode="y" horiz-adv-x="1204" 
d="M43 1085h295l268 -761l262 761h293l-428 -1189q-37 -104 -110 -153.5t-191 -49.5h-196v225h137q49 0 76 16.5t45 53.5l26 67h-86z" />
    <glyph glyph-name="z" unicode="z" horiz-adv-x="1220" 
d="M1090 846l-615 -615h631v-231h-991v244l606 610h-574v231h943v-239z" />
    <glyph glyph-name="braceleft" unicode="{" horiz-adv-x="882" 
d="M80 770q94 -2 139 50.5t45 174.5v170q0 170 124 279.5t319 109.5h96v-268q-127 6 -186.5 -34.5t-59.5 -131.5v-133q0 -137 -81.5 -228.5t-211.5 -103.5v-10q131 -12 212 -104.5t81 -231.5v-131q0 -95 59.5 -137.5t186.5 -38.5v-258h-96q-195 0 -319 108.5t-124 278.5v170
q0 122 -45 175t-139 50v244z" />
    <glyph glyph-name="bar" unicode="|" horiz-adv-x="606" 
d="M152 1454h303v-1761h-303v1761z" />
    <glyph glyph-name="braceright" unicode="}" horiz-adv-x="882" 
d="M803 526q-94 3 -139.5 -50t-45.5 -175v-170q0 -170 -123.5 -278.5t-318.5 -108.5h-96v258q127 -4 186.5 38.5t59.5 137.5v131q0 139 80.5 231.5t211.5 104.5v10q-130 12 -211 103.5t-81 228.5v133q0 91 -59.5 131.5t-186.5 34.5v268h96q195 0 318.5 -109t123.5 -280v-170
q0 -122 45 -174.5t140 -50.5v-244z" />
    <glyph glyph-name="asciitilde" unicode="~" horiz-adv-x="1067" 
d="M80 502q0 170 76.5 271t210.5 101q64 0 112 -26.5t92 -75.5q26 -30 37.5 -42t32.5 -24t43 -12q84 0 84 168h219q0 -170 -76.5 -271.5t-208.5 -101.5q-115 0 -194 89q-7 7 -24.5 27.5t-24.5 27t-21 18t-27 15.5t-28 4q-84 0 -84 -168h-219z" />
    <glyph glyph-name="uni00A0" unicode="&#xa0;" horiz-adv-x="468" 
 />
    <glyph glyph-name="exclamdown" unicode="&#xa1;" horiz-adv-x="524" 
d="M111 106q0 79 8 171.5t22 206t19 171.5h213q5 -58 19 -171.5t22 -206t8 -171.5v-438h-311v438zM98 817v305h330v-305h-330z" />
    <glyph glyph-name="cent" unicode="&#xa2;" horiz-adv-x="1232" 
d="M850 670q-18 137 -125 184l-55 -639q75 9 123.5 63t60.5 148l320 -12q-22 -198 -166.5 -317t-358.5 -122l-14 -161h-164l16 178q-189 43 -298 189.5t-109 361.5q0 243 137 395.5t367 169.5l16 180h164l-16 -186q173 -28 287 -139t132 -279zM397 543q0 -215 113 -293
l53 612q-80 -26 -123 -108.5t-43 -210.5z" />
    <glyph glyph-name="sterling" unicode="&#xa3;" horiz-adv-x="1323" 
d="M725 1487q224 0 359 -108t165 -287l-342 -15q-15 69 -63.5 107.5t-114.5 38.5q-74 0 -127 -51.5t-53 -129.5q0 -36 8.5 -69t30 -88.5t30.5 -81.5h314v-168h-291q2 -121 -55.5 -219t-167.5 -148h807v-262l-1121 -6v236q234 113 234 333q0 43 -2 66h-232v168h195l-12 39
q-47 149 -47 241q0 178 136 291t349 113z" />
    <glyph glyph-name="currency" unicode="&#xa4;" horiz-adv-x="1181" 
d="M590 178q-133 0 -240 74l-149 -150l-117 117l149 150q-73 106 -73 239t73 242l-149 149l117 117l149 -149q110 71 240 71q133 0 239 -73l152 151l117 -117l-152 -151q74 -107 74 -240q0 -130 -74 -237l152 -152l-117 -117l-150 150q-110 -74 -241 -74zM381 608
q0 -86 61.5 -147.5t147.5 -61.5q85 0 147 61.5t62 147.5t-62 147.5t-147 61.5q-86 0 -147.5 -61.5t-61.5 -147.5z" />
    <glyph glyph-name="yen" unicode="&#xa5;" horiz-adv-x="1423" 
d="M51 1454h344l318 -590l317 590h342l-401 -711h174v-182h-275v-115h275v-182h-275v-264h-313v264h-305v182h305v115h-305v182h203z" />
    <glyph glyph-name="brokenbar" unicode="&#xa6;" horiz-adv-x="606" 
d="M152 1454h303v-727h-303v727zM152 -307v727h303v-727h-303z" />
    <glyph glyph-name="section" unicode="&#xa7;" horiz-adv-x="1230" 
d="M819 1010q-12 76 -66 120t-139 44q-72 0 -117.5 -33t-43.5 -84q3 -50 44 -77.5t154 -55.5q241 -41 356 -123t115 -232q0 -154 -159 -225q87 -41 124 -101.5t37 -142.5q0 -154 -133 -238.5t-350 -84.5q-233 0 -378 101t-159 272l310 14q13 -79 72 -122.5t149 -43.5
q77 0 124.5 31t47.5 80q0 25 -16.5 46.5t-39.5 35.5t-63.5 28.5t-70 22.5t-78.5 20q-217 43 -313.5 123.5t-90.5 212.5q3 154 162 231q-162 79 -162 224q0 162 132 250t360 88q127 0 233 -42t178 -126.5t88 -200.5zM453 596q0 -110 180 -127q79 0 126.5 29.5t47.5 81.5
q0 60 -62 91t-135 31q-69 0 -113 -29.5t-44 -76.5z" />
    <glyph glyph-name="dieresis" unicode="&#xa8;" horiz-adv-x="899" 
d="M80 1454h319v-227h-319v227zM502 1227v227h319v-227h-319z" />
    <glyph glyph-name="copyright" unicode="&#xa9;" horiz-adv-x="1679" 
d="M848 1145q-183 0 -294.5 -112.5t-111.5 -299.5q0 -188 111 -301t295 -113q162 0 266.5 90.5t118.5 241.5l-217 13q-9 -82 -53 -125t-115 -43q-88 0 -137 62t-49 175q0 112 49 173t137 61q66 0 109.5 -41.5t52.5 -114.5l217 10q-12 146 -116.5 235t-262.5 89zM84 731
q0 154 60 294t161 241t241 161t294 60t294 -60t241 -161t160.5 -241t59.5 -294t-59.5 -294t-160.5 -241t-241 -161t-294 -60t-294 60t-241 161t-161 241t-60 294zM258 731q0 -157 78.5 -291t212.5 -212t291 -78q117 0 224.5 46.5t185.5 124t124.5 185.5t46.5 225
q0 157 -78.5 291t-212.5 212.5t-290 78.5q-157 0 -291 -78.5t-212.5 -212.5t-78.5 -291z" />
    <glyph glyph-name="ordfeminine" unicode="&#xaa;" horiz-adv-x="1267" 
d="M96 750q32 174 162.5 267t343.5 93q247 0 373.5 -120t126.5 -353v-340q0 -50 17 -68t50 -18h41v-211l-55 -2q-101 -3 -146 6q-145 27 -167 160q-40 -87 -135 -138t-238 -51q-168 0 -278.5 85t-110.5 225q0 75 26.5 129.5t82.5 92.5t127 63t176 46l299 60
q-1 118 -48 174.5t-141 56.5q-157 0 -194 -174zM397 297q0 -53 44 -87t124 -34q103 0 166.5 76.5t63.5 218.5v12l-181 -32q-49 -10 -72 -15.5t-57 -17.5t-49 -26t-27 -38.5t-12 -56.5z" />
    <glyph glyph-name="guillemotleft" unicode="&#xab;" horiz-adv-x="1341" 
d="M387 975h336l-348 -410l348 -409h-336l-307 362v94zM618 518v94l308 363h336l-349 -410l349 -409h-336z" />
    <glyph glyph-name="logicalnot" unicode="&#xac;" horiz-adv-x="960" 
d="M80 664h801v-529h-199v328h-602v201z" />
    <glyph glyph-name="uni00AD" unicode="&#xad;" horiz-adv-x="870" 
d="M80 723h704v-250h-704v250z" />
    <glyph glyph-name="registered" unicode="&#xae;" horiz-adv-x="1200" 
d="M592 1237q102 0 162.5 -46.5t60.5 -123.5q0 -54 -27 -94t-77 -55l118 -213h-141l-100 192h-58v-192h-129v532h191zM84 971q0 140 68.5 259t187.5 188t260 69t260 -69t187.5 -188t68.5 -259q0 -106 -40.5 -202t-109.5 -166t-164.5 -111t-201.5 -41t-201.5 41t-164.5 111
t-109.5 166t-40.5 202zM223 971q0 -156 111.5 -266.5t265.5 -110.5t264.5 110.5t110.5 266.5q0 154 -110.5 264.5t-264.5 110.5t-265.5 -110.5t-111.5 -264.5zM530 1001h64q41 0 64.5 16.5t23.5 47.5q0 57 -88 57h-64v-121z" />
    <glyph glyph-name="macron" unicode="&#xaf;" horiz-adv-x="753" 
d="M80 1464h594v-202h-594v202z" />
    <glyph glyph-name="degree" unicode="&#xb0;" horiz-adv-x="851" 
d="M426 739q-142 0 -244 101.5t-102 244.5q0 141 102 244t244 103t244 -103t102 -244q0 -143 -102 -244.5t-244 -101.5zM289 1085q0 -57 40 -98t97 -41t96 41t39 98q0 56 -39.5 97t-95.5 41q-57 0 -97 -41t-40 -97z" />
    <glyph glyph-name="plusminus" unicode="&#xb1;" horiz-adv-x="1185" 
d="M80 274h1026v-233h-1026v233zM80 618v234h369v233h286v-233h371v-234h-371v-229h-286v229h-369z" />
    <glyph glyph-name="uni00B2" unicode="&#xb2;" 
d="M332 1225q13 117 93.5 189.5t192.5 72.5q113 0 188 -66.5t75 -169.5q0 -147 -183 -266l-57 -39q-117 -80 -129 -131h375v-149h-568q0 54 8.5 100t31.5 100.5t72 107.5t122 101l65 43q97 63 97 133q0 38 -26.5 62t-67.5 24q-99 0 -123 -118z" />
    <glyph glyph-name="uni00B3" unicode="&#xb3;" 
d="M608 1155q46 0 76.5 27.5t30.5 62.5q0 38 -29 65t-72 27q-42 0 -70.5 -18.5t-33.5 -48.5l-166 8q14 89 91.5 149t180.5 60q114 0 190.5 -61t76.5 -152q0 -61 -41.5 -111.5t-110.5 -68.5q79 -19 130.5 -81t51.5 -139q0 -101 -84.5 -171t-207.5 -70q-121 0 -208.5 68.5
t-93.5 168.5l166 7q3 -40 42.5 -67.5t93.5 -27.5t90.5 33t36.5 80q0 51 -40.5 86t-99.5 35h-53v139h53z" />
    <glyph glyph-name="acute" unicode="&#xb4;" horiz-adv-x="534" 
d="M457 1513l-187 -266h-190l129 266h248z" />
    <glyph glyph-name="uni00B5" unicode="&#xb5;" horiz-adv-x="1284" 
d="M1159 0h-297v168q-26 -67 -85 -108.5t-128 -41.5q-61 0 -108 29.5t-68 77.5v-432h-309v1392h309v-596q0 -268 172 -268q97 0 151 70t54 198v596h309v-1085z" />
    <glyph glyph-name="paragraph" unicode="&#xb6;" horiz-adv-x="1343" 
d="M1192 1454v-1454h-268v1298h-146v-1298h-270v633q-202 14 -319 122.5t-117 284.5q0 191 134 302.5t363 111.5h623z" />
    <glyph glyph-name="periodcentered" unicode="&#xb7;" horiz-adv-x="489" 
d="M80 743h330v-305h-330v305z" />
    <glyph glyph-name="cedilla" unicode="&#xb8;" horiz-adv-x="663" 
d="M217 -92l102 112h146l-80 -86q83 0 141 -57.5t58 -144.5q0 -89 -68.5 -151t-159.5 -62q-147 0 -276 153l121 113q44 -56 69 -74q35 -26 74 -26q35 0 57.5 20.5t22.5 52.5q0 44 -43 61.5t-94 -1.5z" />
    <glyph glyph-name="uni00B9" unicode="&#xb9;" 
d="M416 1253q92 0 141 53t49 150h131v-794h-168v481h-204v110h51z" />
    <glyph glyph-name="ordmasculine" unicode="&#xba;" horiz-adv-x="1273" 
d="M637 -25q-252 0 -404.5 155t-152.5 413t152.5 412.5t404.5 154.5t404.5 -154.5t152.5 -412.5t-152.5 -413t-404.5 -155zM397 543q0 -157 62.5 -243.5t177.5 -86.5t177.5 86.5t62.5 243.5t-62.5 243t-177.5 86t-177.5 -86t-62.5 -243z" />
    <glyph glyph-name="guillemotright" unicode="&#xbb;" horiz-adv-x="1341" 
d="M956 975l308 -363v-94l-308 -362h-335l348 409l-348 410h335zM80 156l348 409l-348 410h336l307 -363v-94l-307 -362h-336z" />
    <glyph glyph-name="onequarter" unicode="&#xbc;" horiz-adv-x="1943" 
d="M1540 1454l-967 -1454h-213l967 1454h213zM82 1143v110h51q92 0 141.5 53t49.5 150h131v-794h-168v481h-205zM1249 143v140l387 512h142v-502h82v-150h-82v-143h-166v143h-363zM1446 293h166v219z" />
    <glyph glyph-name="onehalf" unicode="&#xbd;" horiz-adv-x="1982" 
d="M1540 1454l-967 -1454h-213l967 1454h213zM82 1143v110h51q92 0 141.5 53t49.5 150h131v-794h-168v481h-205zM1331 0q0 54 8.5 100.5t31.5 101t72 107.5t122 101l65 43q96 62 96 133q0 38 -26.5 62t-67.5 24q-99 0 -123 -119l-166 6q13 117 94 189.5t193 72.5
q113 0 187.5 -66t74.5 -169q0 -149 -182 -267l-57 -38q-117 -80 -129 -131h374v-150h-567z" />
    <glyph glyph-name="threequarters" unicode="&#xbe;" horiz-adv-x="1986" 
d="M1583 1454l-967 -1454h-213l967 1454h213zM84 870l166 7q3 -40 42 -67.5t93 -27.5t90.5 33t36.5 80q0 51 -40 86t-99 35h-54v139h54q46 0 76 27.5t30 62.5q0 39 -29 65.5t-71 26.5t-71 -19t-34 -48l-165 8q14 89 91.5 149t180.5 60q114 0 190 -61t76 -152
q0 -61 -41 -111.5t-110 -68.5q79 -19 130.5 -81t51.5 -139q0 -101 -85 -171t-208 -70q-121 0 -208 68.5t-93 168.5zM1292 143v140l387 512h142v-502h82v-150h-82v-143h-166v143h-363zM1489 293h166v219z" />
    <glyph glyph-name="questiondown" unicode="&#xbf;" horiz-adv-x="1220" 
d="M772 690q0 -147 -43 -236.5t-154 -164.5q-18 -13 -51.5 -34t-51 -34t-38.5 -33t-30 -45t-9 -57q0 -73 56.5 -117.5t150.5 -44.5q87 0 146 60t71 159l322 -12q-20 -205 -167 -334t-368 -129q-231 0 -378.5 117.5t-147.5 300.5q0 109 54 189.5t181 158.5q82 51 115 107.5
t33 148.5h309zM457 850v305h329v-305h-329z" />
    <glyph glyph-name="Agrave" unicode="&#xc0;" horiz-adv-x="1519" 
d="M51 0l524 1454h369l524 -1454h-323l-107 307h-557l-106 -307h-324zM477 1882h254l129 -266h-196zM569 567h381l-190 559z" />
    <glyph glyph-name="Aacute" unicode="&#xc1;" horiz-adv-x="1519" 
d="M51 0l524 1454h369l524 -1454h-323l-107 307h-557l-106 -307h-324zM569 567h381l-190 559zM659 1616l129 266h248l-186 -266h-191z" />
    <glyph glyph-name="Acircumflex" unicode="&#xc2;" horiz-adv-x="1519" 
d="M51 0l524 1454h369l524 -1454h-323l-107 307h-557l-106 -307h-324zM424 1616l176 246h320l178 -246h-211l-125 174l-125 -174h-213zM569 567h381l-190 559z" />
    <glyph glyph-name="Atilde" unicode="&#xc3;" horiz-adv-x="1519" 
d="M51 0l524 1454h369l524 -1454h-323l-107 307h-557l-106 -307h-324zM401 1608q0 142 61 222.5t167 80.5q89 0 149 -60q7 -6 21 -19.5t20 -18.5t16.5 -12.5t20.5 -10t21 -2.5q63 0 63 121h180q0 -141 -60.5 -222t-166.5 -81q-95 0 -160 65l-23.5 23.5t-18.5 15.5t-23 13
t-23 3q-63 0 -63 -118h-181zM569 567h381l-190 559z" />
    <glyph glyph-name="Adieresis" unicode="&#xc4;" horiz-adv-x="1519" 
d="M51 0l524 1454h369l524 -1454h-323l-107 307h-557l-106 -307h-324zM387 1595v228h320v-228h-320zM569 567h381l-190 559zM807 1595v228h319v-228h-319z" />
    <glyph glyph-name="Aring" unicode="&#xc5;" horiz-adv-x="1519" 
d="M51 0l524 1454h369l524 -1454h-323l-107 307h-557l-106 -307h-324zM549 1769q0 87 62 149t149 62q86 0 147.5 -62.5t61.5 -148.5q0 -88 -61 -148t-148 -60q-88 0 -149.5 59.5t-61.5 148.5zM569 567h381l-190 559zM686 1769q0 -29 21.5 -50t52.5 -21q29 0 49 21t20 50
q0 28 -20 50t-49 22q-30 0 -52 -22t-22 -50z" />
    <glyph glyph-name="AE" unicode="&#xc6;" horiz-adv-x="2150" 
d="M829 1454h1211v-264h-641v-332h616v-258h-616v-336h657v-264h-971v334h-534l-172 -334h-328zM696 614h389v580h-88z" />
    <glyph glyph-name="Ccedilla" unicode="&#xc7;" horiz-adv-x="1492" 
d="M1417 522q-43 -252 -194.5 -396t-391.5 -157l-30 -35q83 0 140.5 -57.5t57.5 -144.5q0 -89 -68 -151t-159 -62q-147 0 -276 153l120 113q45 -57 73 -77q34 -23 71 -23q35 0 57.5 20.5t22.5 52.5q0 44 -43.5 61.5t-94.5 -1.5l-69 90l59 65q-185 21 -324 125t-211.5 266.5
t-72.5 360.5q0 161 49.5 301t139 242t221.5 160.5t290 58.5q251 0 415.5 -140t211.5 -393l-326 -14q-26 135 -106 209t-201 74q-124 0 -209.5 -66.5t-124 -176.5t-38.5 -255q0 -221 94.5 -357.5t277.5 -136.5q126 0 207.5 80t104.5 226z" />
    <glyph glyph-name="Egrave" unicode="&#xc8;" horiz-adv-x="1273" 
d="M152 1454h1013v-264h-700v-332h676v-258h-676v-336h717v-264h-1030v1454zM377 1884h254l129 -266h-197z" />
    <glyph glyph-name="Eacute" unicode="&#xc9;" horiz-adv-x="1273" 
d="M152 1454h1013v-264h-700v-332h676v-258h-676v-336h717v-264h-1030v1454zM559 1618l129 266h248l-186 -266h-191z" />
    <glyph glyph-name="Ecircumflex" unicode="&#xca;" horiz-adv-x="1273" 
d="M152 1454h1013v-264h-700v-332h676v-258h-676v-336h717v-264h-1030v1454zM322 1618l176 246h319l178 -246h-211l-125 174l-124 -174h-213z" />
    <glyph glyph-name="Edieresis" unicode="&#xcb;" horiz-adv-x="1273" 
d="M152 1454h1013v-264h-700v-332h676v-258h-676v-336h717v-264h-1030v1454zM285 1597v228h319v-228h-319zM707 1597v228h319v-228h-319z" />
    <glyph glyph-name="Igrave" unicode="&#xcc;" horiz-adv-x="616" 
d="M152 1454h313v-1454h-313v1454zM27 1882h254l129 -266h-197z" />
    <glyph glyph-name="Iacute" unicode="&#xcd;" horiz-adv-x="616" 
d="M152 1454h313v-1454h-313v1454zM209 1616l129 266h248l-187 -266h-190z" />
    <glyph glyph-name="Icircumflex" unicode="&#xce;" horiz-adv-x="616" 
d="M152 1454h313v-1454h-313v1454zM-29 1616l176 246h320l178 -246h-211l-125 174l-125 -174h-213z" />
    <glyph glyph-name="Idieresis" unicode="&#xcf;" horiz-adv-x="616" 
d="M152 1454h313v-1454h-313v1454zM-66 1595v228h320v-228h-320zM356 1595v228h320v-228h-320z" />
    <glyph glyph-name="Eth" unicode="&#xd0;" horiz-adv-x="1628" 
d="M84 813h223v641h502q353 0 544 -189.5t191 -539.5q0 -349 -187 -537t-536 -188h-514v641h-223v172zM621 264h188q212 0 315 114t103 347q0 236 -103 350.5t-315 114.5h-188v-377h237v-172h-237v-377z" />
    <glyph glyph-name="Ntilde" unicode="&#xd1;" horiz-adv-x="1531" 
d="M152 1454h344l571 -995v995h313v-1454h-356l-559 961v-961h-313v1454zM408 1608q0 142 60.5 222.5t166.5 80.5q89 0 149 -60q7 -6 21 -19.5t20 -18.5t16.5 -12.5t20.5 -10t21 -2.5q63 0 63 121h180q0 -141 -60.5 -222t-166.5 -81q-95 0 -160 65l-23.5 23.5t-18.5 15.5
t-23 13t-23 3q-63 0 -63 -118h-180z" />
    <glyph glyph-name="Ograve" unicode="&#xd2;" horiz-adv-x="1583" 
d="M791 -33q-330 0 -518.5 203t-188.5 555q0 354 188 558t519 204q332 0 520 -203.5t188 -558.5q0 -352 -188 -555t-520 -203zM408 725q0 -232 101 -363t282 -131q184 0 285.5 130.5t101.5 363.5q0 235 -101.5 366.5t-285.5 131.5q-181 0 -282 -131.5t-101 -366.5zM510 1882
h254l129 -266h-197z" />
    <glyph glyph-name="Oacute" unicode="&#xd3;" horiz-adv-x="1583" 
d="M791 -33q-330 0 -518.5 203t-188.5 555q0 354 188 558t519 204q332 0 520 -203.5t188 -558.5q0 -352 -188 -555t-520 -203zM408 725q0 -232 101 -363t282 -131q184 0 285.5 130.5t101.5 363.5q0 235 -101.5 366.5t-285.5 131.5q-181 0 -282 -131.5t-101 -366.5zM692 1616
l129 266h248l-186 -266h-191z" />
    <glyph glyph-name="Ocircumflex" unicode="&#xd4;" horiz-adv-x="1583" 
d="M791 -33q-330 0 -518.5 203t-188.5 555q0 354 188 558t519 204q332 0 520 -203.5t188 -558.5q0 -352 -188 -555t-520 -203zM408 725q0 -232 101 -363t282 -131q184 0 285.5 130.5t101.5 363.5q0 235 -101.5 366.5t-285.5 131.5q-181 0 -282 -131.5t-101 -366.5zM455 1616
l176 246h319l178 -246h-210l-125 174l-125 -174h-213z" />
    <glyph glyph-name="Otilde" unicode="&#xd5;" horiz-adv-x="1583" 
d="M791 -33q-330 0 -518.5 203t-188.5 555q0 354 188 558t519 204q332 0 520 -203.5t188 -558.5q0 -352 -188 -555t-520 -203zM408 725q0 -232 101 -363t282 -131q184 0 285.5 130.5t101.5 363.5q0 235 -101.5 366.5t-285.5 131.5q-181 0 -282 -131.5t-101 -366.5zM432 1608
q0 142 60.5 222.5t166.5 80.5q90 0 150 -60q8 -7 21 -19.5t19.5 -18t17 -13t20 -10t20.5 -2.5q64 0 64 121h180q0 -141 -60.5 -222t-166.5 -81q-95 0 -160 65l-23.5 23.5t-18.5 15.5t-23 13t-23 3q-64 0 -64 -118h-180z" />
    <glyph glyph-name="Odieresis" unicode="&#xd6;" horiz-adv-x="1583" 
d="M791 -33q-330 0 -518.5 203t-188.5 555q0 354 188 558t519 204q332 0 520 -203.5t188 -558.5q0 -352 -188 -555t-520 -203zM408 725q0 -232 101 -363t282 -131q184 0 285.5 130.5t101.5 363.5q0 235 -101.5 366.5t-285.5 131.5q-181 0 -282 -131.5t-101 -366.5zM418 1595
v228h319v-228h-319zM840 1595v228h319v-228h-319z" />
    <glyph glyph-name="multiply" unicode="&#xd7;" horiz-adv-x="1026" 
d="M258 1024l254 -254l254 254l178 -178l-254 -254l256 -256l-178 -178l-256 256l-256 -256l-178 178l256 256l-254 254z" />
    <glyph glyph-name="Oslash" unicode="&#xd8;" horiz-adv-x="1589" 
d="M797 -33q-224 0 -391 99l-74 -99h-232l164 219q-174 202 -174 539q0 354 188 558t519 204q211 0 372 -88l66 88h229l-149 -201q190 -202 190 -561q0 -352 -188 -555t-520 -203zM414 725q0 -162 49 -272l534 716q-85 54 -200 54q-181 0 -282 -131.5t-101 -366.5zM580 299
q86 -68 217 -68q184 0 285.5 130.5t101.5 363.5q0 182 -62 303z" />
    <glyph glyph-name="Ugrave" unicode="&#xd9;" horiz-adv-x="1441" 
d="M1321 526q0 -258 -161.5 -408.5t-438.5 -150.5t-438.5 150.5t-161.5 408.5v930h313v-930q0 -145 74.5 -220t212.5 -75q137 0 212 75.5t75 219.5v930h313v-930zM438 1882h254l129 -266h-196z" />
    <glyph glyph-name="Uacute" unicode="&#xda;" horiz-adv-x="1441" 
d="M1321 526q0 -258 -161.5 -408.5t-438.5 -150.5t-438.5 150.5t-161.5 408.5v930h313v-930q0 -145 74.5 -220t212.5 -75q137 0 212 75.5t75 219.5v930h313v-930zM621 1616l129 266h247l-186 -266h-190z" />
    <glyph glyph-name="Ucircumflex" unicode="&#xdb;" horiz-adv-x="1441" 
d="M1321 526q0 -258 -161.5 -408.5t-438.5 -150.5t-438.5 150.5t-161.5 408.5v930h313v-930q0 -145 74.5 -220t212.5 -75q137 0 212 75.5t75 219.5v930h313v-930zM383 1616l176 246h320l178 -246h-211l-125 174l-125 -174h-213z" />
    <glyph glyph-name="Udieresis" unicode="&#xdc;" horiz-adv-x="1441" 
d="M1321 526q0 -258 -161.5 -408.5t-438.5 -150.5t-438.5 150.5t-161.5 408.5v930h313v-930q0 -145 74.5 -220t212.5 -75q137 0 212 75.5t75 219.5v930h313v-930zM346 1595v228h320v-228h-320zM768 1595v228h319v-228h-319z" />
    <glyph glyph-name="Yacute" unicode="&#xdd;" horiz-adv-x="1423" 
d="M51 1454h344l318 -590l317 590h342l-502 -889v-565h-313v565zM612 1616l129 266h248l-186 -266h-191z" />
    <glyph glyph-name="Thorn" unicode="&#xde;" horiz-adv-x="1312" 
d="M465 0h-313v1454h313v-260h225q258 0 399.5 -115.5t141.5 -326.5q0 -214 -141.5 -331.5t-399.5 -117.5h-225v-303zM465 567h215q229 0 229 185q0 178 -229 178h-215v-363z" />
    <glyph glyph-name="germandbls" unicode="&#xdf;" horiz-adv-x="1347" 
d="M702 260h-131v-260h131q85 0 164 12t155.5 41t132 73.5t90 115t34.5 159.5q0 140 -92 237.5t-248 131.5q120 33 185 116t65 195q0 180 -140 289t-366 109q-257 0 -403 -139t-146 -392v-948h311v948q0 129 65 200t173 71q83 0 137.5 -44.5t54.5 -109.5q0 -79 -54 -131
t-146 -51l-82 2v-254l100 2q121 3 195 -45.5t74 -147.5q0 -88 -74 -134t-185 -46z" />
    <glyph glyph-name="agrave" unicode="&#xe0;" horiz-adv-x="1267" 
d="M96 750q32 174 162.5 267t343.5 93q247 0 373.5 -120t126.5 -353v-340q0 -50 17 -68t50 -18h41v-211l-55 -2q-101 -3 -146 6q-145 27 -167 160q-40 -87 -135 -138t-238 -51q-168 0 -278.5 85t-110.5 225q0 75 26.5 129.5t82.5 92.5t127 63t176 46l299 60
q-1 118 -48 174.5t-141 56.5q-157 0 -194 -174zM330 1513h254l129 -266h-197zM397 297q0 -53 44 -87t124 -34q103 0 166.5 76.5t63.5 218.5v12l-181 -32q-49 -10 -72 -15.5t-57 -17.5t-49 -26t-27 -38.5t-12 -56.5z" />
    <glyph glyph-name="aacute" unicode="&#xe1;" horiz-adv-x="1267" 
d="M96 750q32 174 162.5 267t343.5 93q247 0 373.5 -120t126.5 -353v-340q0 -50 17 -68t50 -18h41v-211l-55 -2q-101 -3 -146 6q-145 27 -167 160q-40 -87 -135 -138t-238 -51q-168 0 -278.5 85t-110.5 225q0 75 26.5 129.5t82.5 92.5t127 63t176 46l299 60
q-1 118 -48 174.5t-141 56.5q-157 0 -194 -174zM397 297q0 -53 44 -87t124 -34q103 0 166.5 76.5t63.5 218.5v12l-181 -32q-49 -10 -72 -15.5t-57 -17.5t-49 -26t-27 -38.5t-12 -56.5zM512 1247l129 266h248l-187 -266h-190z" />
    <glyph glyph-name="acircumflex" unicode="&#xe2;" horiz-adv-x="1267" 
d="M96 750q32 174 162.5 267t343.5 93q247 0 373.5 -120t126.5 -353v-340q0 -50 17 -68t50 -18h41v-211l-55 -2q-101 -3 -146 6q-145 27 -167 160q-40 -87 -135 -138t-238 -51q-168 0 -278.5 85t-110.5 225q0 75 26.5 129.5t82.5 92.5t127 63t176 46l299 60
q-1 118 -48 174.5t-141 56.5q-157 0 -194 -174zM276 1247l177 246h319l178 -246h-211l-125 174l-125 -174h-213zM397 297q0 -53 44 -87t124 -34q103 0 166.5 76.5t63.5 218.5v12l-181 -32q-49 -10 -72 -15.5t-57 -17.5t-49 -26t-27 -38.5t-12 -56.5z" />
    <glyph glyph-name="atilde" unicode="&#xe3;" horiz-adv-x="1267" 
d="M96 750q32 174 162.5 267t343.5 93q247 0 373.5 -120t126.5 -353v-340q0 -50 17 -68t50 -18h41v-211l-55 -2q-101 -3 -146 6q-145 27 -167 160q-40 -87 -135 -138t-238 -51q-168 0 -278.5 85t-110.5 225q0 75 26.5 129.5t82.5 92.5t127 63t176 46l299 60
q-1 118 -48 174.5t-141 56.5q-157 0 -194 -174zM254 1239q0 142 60.5 222.5t166.5 80.5q91 0 150 -59q7 -6 25 -23.5t25 -23t20.5 -11.5t27.5 -6q64 0 64 121h180q0 -141 -61 -222t-167 -81q-93 0 -159 66l-23.5 23.5t-18.5 15.5t-23 13t-23 3q-64 0 -64 -119h-180zM397 297
q0 -53 44 -87t124 -34q103 0 166.5 76.5t63.5 218.5v12l-181 -32q-49 -10 -72 -15.5t-57 -17.5t-49 -26t-27 -38.5t-12 -56.5z" />
    <glyph glyph-name="adieresis" unicode="&#xe4;" horiz-adv-x="1267" 
d="M96 750q32 174 162.5 267t343.5 93q247 0 373.5 -120t126.5 -353v-340q0 -50 17 -68t50 -18h41v-211l-55 -2q-101 -3 -146 6q-145 27 -167 160q-40 -87 -135 -138t-238 -51q-168 0 -278.5 85t-110.5 225q0 75 26.5 129.5t82.5 92.5t127 63t176 46l299 60
q-1 118 -48 174.5t-141 56.5q-157 0 -194 -174zM240 1227v227h319v-227h-319zM397 297q0 -53 44 -87t124 -34q103 0 166.5 76.5t63.5 218.5v12l-181 -32q-49 -10 -72 -15.5t-57 -17.5t-49 -26t-27 -38.5t-12 -56.5zM659 1227v227h320v-227h-320z" />
    <glyph glyph-name="aring" unicode="&#xe5;" horiz-adv-x="1267" 
d="M96 750q32 174 162.5 267t343.5 93q247 0 373.5 -120t126.5 -353v-340q0 -50 17 -68t50 -18h41v-211l-55 -2q-101 -3 -146 6q-145 27 -167 160q-40 -87 -135 -138t-238 -51q-168 0 -278.5 85t-110.5 225q0 75 26.5 129.5t82.5 92.5t127 63t176 46l299 60
q-1 118 -48 174.5t-141 56.5q-157 0 -194 -174zM397 297q0 -53 44 -87t124 -34q103 0 166.5 76.5t63.5 218.5v12l-181 -32q-49 -10 -72 -15.5t-57 -17.5t-49 -26t-27 -38.5t-12 -56.5zM401 1401q0 87 62 149t149 62q86 0 147.5 -62.5t61.5 -148.5q0 -89 -61 -149t-148 -60
q-88 0 -149.5 60t-61.5 149zM539 1401q0 -29 21.5 -50.5t51.5 -21.5q29 0 49.5 21.5t20.5 50.5q0 28 -20.5 50t-49.5 22q-30 0 -51.5 -22t-21.5 -50z" />
    <glyph glyph-name="ae" unicode="&#xe6;" horiz-adv-x="1978" 
d="M96 750q32 172 164 266t342 94q257 0 385 -131q150 131 379 131q233 0 382 -156t148 -434v-57h-763q6 -122 67.5 -190t165.5 -68q68 0 123.5 36t81.5 99l311 -23q-49 -158 -189 -250t-327 -92q-152 0 -272 60t-191 168q-106 -227 -424 -230q-166 2 -282.5 89t-116.5 227
q0 60 17.5 107t49 80.5t81 59.5t105.5 43t132 31l326 64q-1 121 -49 177t-140 56q-78 0 -127.5 -45t-64.5 -129zM397 291q0 -56 44 -94t128 -35q99 3 162 69.5t64 184.5v67l-181 -34q-113 -23 -148 -40q-69 -34 -69 -118zM1135 649h448q-11 117 -71 174.5t-146 57.5
q-97 0 -158 -62t-73 -170z" />
    <glyph glyph-name="ccedilla" unicode="&#xe7;" horiz-adv-x="1232" 
d="M850 670q-13 96 -71 149t-142 53q-115 0 -177.5 -86t-62.5 -243t62.5 -243.5t177.5 -86.5q88 0 146 54.5t71 158.5l320 -12q-20 -187 -151.5 -304.5t-328.5 -132.5l-41 -43q83 0 141 -57.5t58 -144.5q0 -89 -68 -151t-159 -62q-148 0 -277 153l121 113q44 -56 69 -74
q35 -26 74 -26q35 0 57.5 20.5t22.5 52.5q0 44 -43 61.5t-94 -1.5l-70 90l66 72q-216 28 -343.5 178.5t-127.5 384.5q0 258 152.5 412.5t404.5 154.5q214 0 361.5 -115.5t168.5 -310.5z" />
    <glyph glyph-name="egrave" unicode="&#xe8;" horiz-adv-x="1249" 
d="M80 543q0 258 152.5 412.5t404.5 154.5q233 0 382 -156t148 -434v-57h-764q6 -122 68 -190t166 -68q68 0 123.5 36t81.5 99l311 -23q-49 -158 -189 -250t-327 -92q-252 0 -404.5 155t-152.5 413zM354 1511h254l129 -266h-196zM406 649h448q-11 117 -71 174.5t-146 57.5
q-97 0 -158 -62t-73 -170z" />
    <glyph glyph-name="eacute" unicode="&#xe9;" horiz-adv-x="1249" 
d="M80 543q0 258 152.5 412.5t404.5 154.5q233 0 382 -156t148 -434v-57h-764q6 -122 68 -190t166 -68q68 0 123.5 36t81.5 99l311 -23q-49 -158 -189 -250t-327 -92q-252 0 -404.5 155t-152.5 413zM406 649h448q-11 117 -71 174.5t-146 57.5q-97 0 -158 -62t-73 -170z
M537 1245l129 266h247l-186 -266h-190z" />
    <glyph glyph-name="ecircumflex" unicode="&#xea;" horiz-adv-x="1249" 
d="M80 543q0 258 152.5 412.5t404.5 154.5q233 0 382 -156t148 -434v-57h-764q6 -122 68 -190t166 -68q68 0 123.5 36t81.5 99l311 -23q-49 -158 -189 -250t-327 -92q-252 0 -404.5 155t-152.5 413zM299 1245l176 246h320l178 -246h-211l-125 174l-125 -174h-213zM406 649
h448q-11 117 -71 174.5t-146 57.5q-97 0 -158 -62t-73 -170z" />
    <glyph glyph-name="edieresis" unicode="&#xeb;" horiz-adv-x="1249" 
d="M80 543q0 258 152.5 412.5t404.5 154.5q233 0 382 -156t148 -434v-57h-764q6 -122 68 -190t166 -68q68 0 123.5 36t81.5 99l311 -23q-49 -158 -189 -250t-327 -92q-252 0 -404.5 155t-152.5 413zM264 1225v227h320v-227h-320zM406 649h448q-11 117 -71 174.5t-146 57.5
q-97 0 -158 -62t-73 -170zM684 1225v227h320v-227h-320z" />
    <glyph glyph-name="igrave" unicode="&#xec;" horiz-adv-x="577" 
d="M133 1085h311v-1085h-311v1085zM6 1513h254l129 -266h-196z" />
    <glyph glyph-name="iacute" unicode="&#xed;" horiz-adv-x="577" 
d="M133 1085h311v-1085h-311v1085zM188 1247l129 266h248l-186 -266h-191z" />
    <glyph glyph-name="icircumflex" unicode="&#xee;" horiz-adv-x="577" 
d="M133 1085h311v-1085h-311v1085zM-49 1247l176 246h319l179 -246h-211l-125 174l-125 -174h-213z" />
    <glyph glyph-name="idieresis" unicode="&#xef;" horiz-adv-x="577" 
d="M133 1085h311v-1085h-311v1085zM-84 1227v227h320v-227h-320zM336 1227v227h319v-227h-319z" />
    <glyph glyph-name="eth" unicode="&#xf0;" horiz-adv-x="1263" 
d="M643 971q101 -11 181 -64.5t120 -138.5q-6 236 -168 389l-274 -113l-58 140l183 76q-115 54 -256 69l86 223q278 -25 461 -174l174 72l57 -139l-121 -49q96 -130 133.5 -303t19.5 -333t-74 -299.5t-138 -215.5q-87 -77 -176.5 -108.5t-210.5 -27.5q-235 11 -377.5 162.5
t-122.5 372.5q19 228 173 354.5t388 106.5zM399 496q-10 -125 41.5 -201.5t149.5 -85.5q109 -9 184 82.5t82 243.5q-10 87 -69.5 139.5t-145.5 60.5q-98 8 -165.5 -58.5t-76.5 -180.5z" />
    <glyph glyph-name="ntilde" unicode="&#xf1;" horiz-adv-x="1251" 
d="M133 1085h279l8 -174q82 199 323 199q177 0 276 -110.5t99 -301.5v-698h-309v596q0 136 -37.5 202t-128.5 66q-98 0 -148.5 -69t-50.5 -199v-596h-311v1085zM266 1239q0 142 61 222.5t167 80.5q90 0 149 -59q7 -6 25 -23.5t25 -23t20.5 -11.5t27.5 -6q64 0 64 121h180
q0 -141 -60.5 -222t-166.5 -81q-94 0 -160 66l-23.5 23.5t-18.5 15.5t-23 13t-23 3q-64 0 -64 -119h-180z" />
    <glyph glyph-name="ograve" unicode="&#xf2;" horiz-adv-x="1273" 
d="M637 -25q-252 0 -404.5 155t-152.5 413t152.5 412.5t404.5 154.5t404.5 -154.5t152.5 -412.5t-152.5 -413t-404.5 -155zM354 1513h254l129 -266h-196zM397 543q0 -157 62.5 -243.5t177.5 -86.5t177.5 86.5t62.5 243.5t-62.5 243t-177.5 86t-177.5 -86t-62.5 -243z" />
    <glyph glyph-name="oacute" unicode="&#xf3;" horiz-adv-x="1273" 
d="M637 -25q-252 0 -404.5 155t-152.5 413t152.5 412.5t404.5 154.5t404.5 -154.5t152.5 -412.5t-152.5 -413t-404.5 -155zM397 543q0 -157 62.5 -243.5t177.5 -86.5t177.5 86.5t62.5 243.5t-62.5 243t-177.5 86t-177.5 -86t-62.5 -243zM537 1247l129 266h247l-186 -266
h-190z" />
    <glyph glyph-name="ocircumflex" unicode="&#xf4;" horiz-adv-x="1273" 
d="M637 -25q-252 0 -404.5 155t-152.5 413t152.5 412.5t404.5 154.5t404.5 -154.5t152.5 -412.5t-152.5 -413t-404.5 -155zM299 1247l176 246h320l178 -246h-211l-125 174l-125 -174h-213zM397 543q0 -157 62.5 -243.5t177.5 -86.5t177.5 86.5t62.5 243.5t-62.5 243
t-177.5 86t-177.5 -86t-62.5 -243z" />
    <glyph glyph-name="otilde" unicode="&#xf5;" horiz-adv-x="1273" 
d="M637 -25q-252 0 -404.5 155t-152.5 413t152.5 412.5t404.5 154.5t404.5 -154.5t152.5 -412.5t-152.5 -413t-404.5 -155zM276 1239q0 142 61 222.5t167 80.5q90 0 149 -59q6 -5 25 -23.5t25.5 -23t20.5 -11t28 -6.5q63 0 63 121h180q0 -141 -60.5 -222t-166.5 -81
q-94 0 -160 66l-23.5 23.5t-18.5 15.5t-23 13t-23 3q-63 0 -63 -119h-181zM397 543q0 -157 62.5 -243.5t177.5 -86.5t177.5 86.5t62.5 243.5t-62.5 243t-177.5 86t-177.5 -86t-62.5 -243z" />
    <glyph glyph-name="odieresis" unicode="&#xf6;" horiz-adv-x="1273" 
d="M637 -25q-252 0 -404.5 155t-152.5 413t152.5 412.5t404.5 154.5t404.5 -154.5t152.5 -412.5t-152.5 -413t-404.5 -155zM264 1227v227h320v-227h-320zM397 543q0 -157 62.5 -243.5t177.5 -86.5t177.5 86.5t62.5 243.5t-62.5 243t-177.5 86t-177.5 -86t-62.5 -243z
M684 1227v227h320v-227h-320z" />
    <glyph glyph-name="divide" unicode="&#xf7;" horiz-adv-x="1134" 
d="M80 803h975v-252h-975v252zM418 258q0 69 46.5 114.5t115.5 45.5t116 -45.5t47 -114.5t-47 -114.5t-116 -45.5t-115.5 45.5t-46.5 114.5zM418 1110q0 69 46.5 114.5t115.5 45.5t116 -45.5t47 -114.5t-47 -114.5t-116 -45.5t-115.5 45.5t-46.5 114.5z" />
    <glyph glyph-name="oslash" unicode="&#xf8;" horiz-adv-x="1243" 
d="M637 -25q-168 0 -297 74l-59 -74h-215l145 179q-131 153 -131 389q0 258 152.5 412.5t404.5 154.5q159 0 289 -68l55 68h213l-137 -170q137 -153 137 -397q0 -258 -152.5 -413t-404.5 -155zM397 543q0 -60 15 -137l350 432q-52 34 -125 34q-115 0 -177.5 -86t-62.5 -243z
M504 254q56 -41 133 -41q115 0 177.5 86.5t62.5 243.5q0 81 -19 149z" />
    <glyph glyph-name="ugrave" unicode="&#xf9;" horiz-adv-x="1245" 
d="M1110 0h-281l-6 170q-82 -195 -319 -195q-174 0 -272.5 111t-98.5 301v698h311v-596q0 -136 36 -202t126 -66q95 0 145 69.5t50 198.5v596h309v-1085zM336 1513h254l129 -266h-197z" />
    <glyph glyph-name="uacute" unicode="&#xfa;" horiz-adv-x="1245" 
d="M1110 0h-281l-6 170q-82 -195 -319 -195q-174 0 -272.5 111t-98.5 301v698h311v-596q0 -136 36 -202t126 -66q95 0 145 69.5t50 198.5v596h309v-1085zM518 1247l129 266h248l-186 -266h-191z" />
    <glyph glyph-name="ucircumflex" unicode="&#xfb;" horiz-adv-x="1245" 
d="M1110 0h-281l-6 170q-82 -195 -319 -195q-174 0 -272.5 111t-98.5 301v698h311v-596q0 -136 36 -202t126 -66q95 0 145 69.5t50 198.5v596h309v-1085zM281 1247l176 246h319l178 -246h-211l-125 174l-124 -174h-213z" />
    <glyph glyph-name="udieresis" unicode="&#xfc;" horiz-adv-x="1245" 
d="M1110 0h-281l-6 170q-82 -195 -319 -195q-174 0 -272.5 111t-98.5 301v698h311v-596q0 -136 36 -202t126 -66q95 0 145 69.5t50 198.5v596h309v-1085zM244 1227v227h319v-227h-319zM666 1227v227h319v-227h-319z" />
    <glyph glyph-name="yacute" unicode="&#xfd;" horiz-adv-x="1204" 
d="M43 1085h295l268 -761l262 761h293l-428 -1189q-37 -104 -110 -153.5t-191 -49.5h-196v225h137q49 0 76 16.5t45 53.5l26 67h-86zM504 1247l129 266h248l-187 -266h-190z" />
    <glyph glyph-name="thorn" unicode="&#xfe;" horiz-adv-x="1282" 
d="M133 1454h316v-459q81 115 270 115q154 0 265 -76t164.5 -202.5t53.5 -288.5q0 -121 -31.5 -223.5t-91 -180t-152 -121t-208.5 -43.5q-179 0 -270 115v-397h-316v1761zM428 543q0 -133 57.5 -220t169.5 -87q115 0 172.5 86.5t57.5 220.5q0 137 -57.5 225t-172.5 88
q-112 0 -169.5 -88.5t-57.5 -224.5z" />
    <glyph glyph-name="ydieresis" unicode="&#xff;" horiz-adv-x="1204" 
d="M43 1085h295l268 -761l262 761h293l-428 -1189q-37 -104 -110 -153.5t-191 -49.5h-196v225h137q49 0 76 16.5t45 53.5l26 67h-86zM229 1227v227h320v-227h-320zM651 1227v227h320v-227h-320z" />
    <glyph glyph-name="Amacron" unicode="&#x100;" horiz-adv-x="1519" 
d="M51 0l524 1454h369l524 -1454h-323l-107 307h-557l-106 -307h-324zM463 1630v203h594v-203h-594zM569 567h381l-190 559z" />
    <glyph glyph-name="amacron" unicode="&#x101;" horiz-adv-x="1267" 
d="M96 750q32 174 162.5 267t343.5 93q247 0 373.5 -120t126.5 -353v-340q0 -50 17 -68t50 -18h41v-211l-55 -2q-101 -3 -146 6q-145 27 -167 160q-40 -87 -135 -138t-238 -51q-168 0 -278.5 85t-110.5 225q0 75 26.5 129.5t82.5 92.5t127 63t176 46l299 60
q-1 118 -48 174.5t-141 56.5q-157 0 -194 -174zM315 1262v202h594v-202h-594zM397 297q0 -53 44 -87t124 -34q103 0 166.5 76.5t63.5 218.5v12l-181 -32q-49 -10 -72 -15.5t-57 -17.5t-49 -26t-27 -38.5t-12 -56.5z" />
    <glyph glyph-name="Abreve" unicode="&#x102;" horiz-adv-x="1519" 
d="M51 0l524 1454h369l524 -1454h-323l-107 307h-557l-106 -307h-324zM438 1890h189q0 -54 38 -89.5t95 -35.5t95 35.5t38 89.5h190q0 -119 -93.5 -200.5t-229.5 -81.5q-135 0 -228.5 82t-93.5 200zM569 567h381l-190 559z" />
    <glyph glyph-name="abreve" unicode="&#x103;" horiz-adv-x="1267" 
d="M96 750q32 174 162.5 267t343.5 93q247 0 373.5 -120t126.5 -353v-340q0 -50 17 -68t50 -18h41v-211l-55 -2q-101 -3 -146 6q-145 27 -167 160q-40 -87 -135 -138t-238 -51q-168 0 -278.5 85t-110.5 225q0 75 26.5 129.5t82.5 92.5t127 63t176 46l299 60
q-1 118 -48 174.5t-141 56.5q-157 0 -194 -174zM291 1522h188q0 -54 38 -89.5t95 -35.5t95 35.5t38 89.5h191q0 -119 -94 -201t-230 -82q-135 0 -228 82t-93 201zM397 297q0 -53 44 -87t124 -34q103 0 166.5 76.5t63.5 218.5v12l-181 -32q-49 -10 -72 -15.5t-57 -17.5
t-49 -26t-27 -38.5t-12 -56.5z" />
    <glyph glyph-name="Aogonek" unicode="&#x104;" horiz-adv-x="1583" 
d="M51 0l524 1454h369l524 -1454h-8l-51 -68q-68 -89 -68 -135q0 -29 19.5 -48t48.5 -19q50 0 123 47v-166q-81 -67 -199 -60q-78 3 -132 56t-54 127q0 113 90 200l63 66h-155l-107 307h-557l-106 -307h-324zM569 567h381l-190 559z" />
    <glyph glyph-name="aogonek" unicode="&#x105;" horiz-adv-x="1267" 
d="M96 750q32 174 162.5 267t343.5 93q247 0 373.5 -120t126.5 -353v-340q0 -50 17 -68t50 -18h41v-211h-6l-47 -63q-67 -87 -67 -136q0 -29 19 -48t48 -19q50 0 123 47v-166q-80 -66 -199 -59q-78 3 -132 56t-54 126q0 114 90 201l57 59q-176 17 -200 166
q-40 -87 -135 -138t-238 -51q-168 0 -278.5 85t-110.5 225q0 75 26.5 129.5t82.5 92.5t127 63t176 46l299 60q-1 118 -48 174.5t-141 56.5q-157 0 -194 -174zM397 297q0 -53 44 -87t124 -34q103 0 166.5 76.5t63.5 218.5v12l-181 -32q-49 -10 -72 -15.5t-57 -17.5t-49 -26
t-27 -38.5t-12 -56.5z" />
    <glyph glyph-name="Cacute" unicode="&#x106;" horiz-adv-x="1492" 
d="M1417 522q-44 -264 -208.5 -409.5t-424.5 -145.5q-158 0 -290 58t-221.5 159.5t-139 240.5t-49.5 300t49.5 301t139 242t221.5 160.5t290 58.5q251 0 415.5 -140t211.5 -393l-326 -14q-26 135 -106 209t-201 74q-124 0 -209.5 -66.5t-124 -176.5t-38.5 -255
q0 -221 94.5 -357.5t277.5 -136.5q126 0 207.5 80t104.5 226zM686 1616l129 266h248l-186 -266h-191z" />
    <glyph glyph-name="cacute" unicode="&#x107;" horiz-adv-x="1232" 
d="M850 670q-13 96 -71 149t-142 53q-115 0 -177.5 -86t-62.5 -243t62.5 -243.5t177.5 -86.5q88 0 146 54.5t71 158.5l320 -12q-22 -201 -170 -320t-367 -119q-252 0 -404.5 155t-152.5 413t152.5 412.5t404.5 154.5q214 0 361.5 -115.5t168.5 -310.5zM537 1247l129 266h247
l-186 -266h-190z" />
    <glyph glyph-name="Ccircumflex" unicode="&#x108;" horiz-adv-x="1492" 
d="M1417 522q-44 -264 -208.5 -409.5t-424.5 -145.5q-158 0 -290 58t-221.5 159.5t-139 240.5t-49.5 300t49.5 301t139 242t221.5 160.5t290 58.5q251 0 415.5 -140t211.5 -393l-326 -14q-26 135 -106 209t-201 74q-124 0 -209.5 -66.5t-124 -176.5t-38.5 -255
q0 -221 94.5 -357.5t277.5 -136.5q126 0 207.5 80t104.5 226zM449 1616l176 246h319l178 -246h-211l-125 174l-124 -174h-213z" />
    <glyph glyph-name="ccircumflex" unicode="&#x109;" horiz-adv-x="1232" 
d="M850 670q-13 96 -71 149t-142 53q-115 0 -177.5 -86t-62.5 -243t62.5 -243.5t177.5 -86.5q88 0 146 54.5t71 158.5l320 -12q-22 -201 -170 -320t-367 -119q-252 0 -404.5 155t-152.5 413t152.5 412.5t404.5 154.5q214 0 361.5 -115.5t168.5 -310.5zM299 1247l176 246h320
l178 -246h-211l-125 174l-125 -174h-213z" />
    <glyph glyph-name="Cdotaccent" unicode="&#x10a;" horiz-adv-x="1492" 
d="M1417 522q-44 -264 -208.5 -409.5t-424.5 -145.5q-158 0 -290 58t-221.5 159.5t-139 240.5t-49.5 300t49.5 301t139 242t221.5 160.5t290 58.5q251 0 415.5 -140t211.5 -393l-326 -14q-26 135 -106 209t-201 74q-124 0 -209.5 -66.5t-124 -176.5t-38.5 -255
q0 -221 94.5 -357.5t277.5 -136.5q126 0 207.5 80t104.5 226zM627 1595v228h319v-228h-319z" />
    <glyph glyph-name="cdotaccent" unicode="&#x10b;" horiz-adv-x="1232" 
d="M850 670q-13 96 -71 149t-142 53q-115 0 -177.5 -86t-62.5 -243t62.5 -243.5t177.5 -86.5q88 0 146 54.5t71 158.5l320 -12q-22 -201 -170 -320t-367 -119q-252 0 -404.5 155t-152.5 413t152.5 412.5t404.5 154.5q214 0 361.5 -115.5t168.5 -310.5zM477 1227v227h320
v-227h-320z" />
    <glyph glyph-name="Ccaron" unicode="&#x10c;" horiz-adv-x="1492" 
d="M1417 522q-44 -264 -208.5 -409.5t-424.5 -145.5q-158 0 -290 58t-221.5 159.5t-139 240.5t-49.5 300t49.5 301t139 242t221.5 160.5t290 58.5q251 0 415.5 -140t211.5 -393l-326 -14q-26 135 -106 209t-201 74q-124 0 -209.5 -66.5t-124 -176.5t-38.5 -255
q0 -221 94.5 -357.5t277.5 -136.5q126 0 207.5 80t104.5 226zM444 1864h213l125 -174l125 174h211l-178 -246h-319z" />
    <glyph glyph-name="ccaron" unicode="&#x10d;" horiz-adv-x="1232" 
d="M850 670q-13 96 -71 149t-142 53q-115 0 -177.5 -86t-62.5 -243t62.5 -243.5t177.5 -86.5q88 0 146 54.5t71 158.5l320 -12q-22 -201 -170 -320t-367 -119q-252 0 -404.5 155t-152.5 413t152.5 412.5t404.5 154.5q214 0 361.5 -115.5t168.5 -310.5zM297 1495h213
l125 -174l125 174h211l-178 -246h-320z" />
    <glyph glyph-name="Dcaron" unicode="&#x10e;" horiz-adv-x="1472" 
d="M653 1454q353 0 544.5 -189.5t191.5 -539.5q0 -349 -187 -537t-536 -188h-514v1454h501zM324 1864h213l125 -174l124 174h211l-178 -246h-319zM465 264h188q212 0 315 114t103 347q0 236 -103 350.5t-315 114.5h-188v-926z" />
    <glyph glyph-name="dcaron" unicode="&#x10f;" horiz-adv-x="1691" 
d="M1169 1454v-1454h-297l-6 156q-46 -85 -132.5 -133t-194.5 -48q-212 0 -335.5 153.5t-123.5 414.5t123.5 414t335.5 153q103 0 187.5 -45.5t131.5 -128.5v518h311zM395 543q0 -150 67 -241t175 -91q110 0 175 90.5t65 241.5q0 155 -65.5 245.5t-174.5 90.5
q-111 0 -176.5 -90.5t-65.5 -245.5zM1237 1247l129 266h248l-187 -266h-190z" />
    <glyph glyph-name="Dcroat" unicode="&#x110;" horiz-adv-x="1628" 
d="M84 813h223v641h502q353 0 544 -189.5t191 -539.5q0 -349 -187 -537t-536 -188h-514v641h-223v172zM621 264h188q212 0 315 114t103 347q0 236 -103 350.5t-315 114.5h-188v-377h237v-172h-237v-377z" />
    <glyph glyph-name="dcroat" unicode="&#x111;" horiz-adv-x="1415" 
d="M1169 1454v-104h134v-174h-134v-1176h-297l-6 156q-46 -85 -132.5 -133t-194.5 -48q-212 0 -335.5 153.5t-123.5 414.5t123.5 414t335.5 153q103 0 187.5 -45.5t131.5 -128.5v240h-213v174h213v104h311zM395 543q0 -150 67 -241t175 -91q110 0 175 90.5t65 241.5
q0 155 -65.5 245.5t-174.5 90.5q-111 0 -176.5 -90.5t-65.5 -245.5z" />
    <glyph glyph-name="Emacron" unicode="&#x112;" horiz-adv-x="1273" 
d="M152 1454h1013v-264h-700v-332h676v-258h-676v-336h717v-264h-1030v1454zM362 1632v203h594v-203h-594z" />
    <glyph glyph-name="emacron" unicode="&#x113;" horiz-adv-x="1249" 
d="M80 543q0 258 152.5 412.5t404.5 154.5q233 0 382 -156t148 -434v-57h-764q6 -122 68 -190t166 -68q68 0 123.5 36t81.5 99l311 -23q-49 -158 -189 -250t-327 -92q-252 0 -404.5 155t-152.5 413zM340 1260v202h594v-202h-594zM406 649h448q-11 117 -71 174.5t-146 57.5
q-97 0 -158 -62t-73 -170z" />
    <glyph glyph-name="Edotaccent" unicode="&#x116;" horiz-adv-x="1273" 
d="M152 1454h1013v-264h-700v-332h676v-258h-676v-336h717v-264h-1030v1454zM500 1597v228h319v-228h-319z" />
    <glyph glyph-name="edotaccent" unicode="&#x117;" horiz-adv-x="1249" 
d="M80 543q0 258 152.5 412.5t404.5 154.5q233 0 382 -156t148 -434v-57h-764q6 -122 68 -190t166 -68q68 0 123.5 36t81.5 99l311 -23q-49 -158 -189 -250t-327 -92q-252 0 -404.5 155t-152.5 413zM406 649h448q-11 117 -71 174.5t-146 57.5q-97 0 -158 -62t-73 -170z
M477 1225v227h320v-227h-320z" />
    <glyph glyph-name="Eogonek" unicode="&#x118;" horiz-adv-x="1273" 
d="M152 1454h1013v-264h-700v-332h676v-258h-676v-336h717v-264h-2l-52 -68q-67 -87 -67 -135q0 -29 19 -48t48 -19q50 0 123 47v-166q-81 -67 -198 -60q-78 3 -132.5 56.5t-54.5 126.5q0 113 90 200l64 66h-868v1454z" />
    <glyph glyph-name="eogonek" unicode="&#x119;" horiz-adv-x="1249" 
d="M80 543q0 258 152.5 412.5t404.5 154.5q233 0 382 -156t148 -434v-57h-764q6 -122 68 -190t166 -68q68 0 123.5 36t81.5 99l311 -23q-38 -123 -135 -207.5t-232 -117.5l-45 -60q-67 -87 -67 -135q0 -29 19 -48t48 -19q50 0 123 47v-166q-81 -67 -198 -60
q-78 3 -132.5 56.5t-54.5 126.5q0 113 90 200l41 41q-242 9 -386 163.5t-144 404.5zM406 649h448q-11 117 -71 174.5t-146 57.5q-97 0 -158 -62t-73 -170z" />
    <glyph glyph-name="Ecaron" unicode="&#x11a;" horiz-adv-x="1273" 
d="M152 1454h1013v-264h-700v-332h676v-258h-676v-336h717v-264h-1030v1454zM317 1866h213l125 -174l125 174h211l-178 -246h-319z" />
    <glyph glyph-name="ecaron" unicode="&#x11b;" horiz-adv-x="1249" 
d="M80 543q0 258 152.5 412.5t404.5 154.5q233 0 382 -156t148 -434v-57h-764q6 -122 68 -190t166 -68q68 0 123.5 36t81.5 99l311 -23q-49 -158 -189 -250t-327 -92q-252 0 -404.5 155t-152.5 413zM297 1493h213l125 -174l125 174h211l-178 -246h-320zM406 649h448
q-11 117 -71 174.5t-146 57.5q-97 0 -158 -62t-73 -170z" />
    <glyph glyph-name="Gcircumflex" unicode="&#x11c;" horiz-adv-x="1507" 
d="M1413 0h-190l-17 213q-51 -114 -168.5 -180t-269.5 -66q-203 0 -360 100t-240.5 272t-83.5 386q0 161 49.5 301t139 242t221.5 160.5t290 58.5q247 0 409.5 -135t215.5 -375l-324 -14q-30 126 -107.5 193t-199.5 67q-124 0 -209.5 -66.5t-124 -176.5t-38.5 -255
q0 -221 94.5 -357.5t277.5 -136.5q137 0 219 80t101 215h-320v232h635v-758zM449 1616l176 246h319l178 -246h-211l-125 174l-124 -174h-213z" />
    <glyph glyph-name="gcircumflex" unicode="&#x11d;" horiz-adv-x="1302" 
d="M551 51q-212 0 -341.5 141t-129.5 373q0 246 129 395.5t340 149.5q105 0 187.5 -50t125.5 -140v165h305v-954q0 -214 -149.5 -338.5t-392.5 -124.5q-189 0 -327.5 83.5t-186.5 223.5l315 21q22 -53 75.5 -83t127.5 -30q110 0 168.5 54.5t58.5 160.5v117
q-38 -75 -121.5 -119.5t-183.5 -44.5zM299 1247l176 246h320l178 -246h-211l-125 174l-125 -174h-213zM397 569q0 -140 65 -223.5t171 -83.5q107 0 170 83t65 224q1 141 -62.5 224.5t-172.5 83.5t-172.5 -83.5t-63.5 -224.5z" />
    <glyph glyph-name="Gbreve" unicode="&#x11e;" horiz-adv-x="1507" 
d="M1413 0h-190l-17 213q-51 -114 -168.5 -180t-269.5 -66q-203 0 -360 100t-240.5 272t-83.5 386q0 161 49.5 301t139 242t221.5 160.5t290 58.5q247 0 409.5 -135t215.5 -375l-324 -14q-30 126 -107.5 193t-199.5 67q-124 0 -209.5 -66.5t-124 -176.5t-38.5 -255
q0 -221 94.5 -357.5t277.5 -136.5q137 0 219 80t101 215h-320v232h635v-758zM463 1890h188q0 -54 38 -89.5t95 -35.5t95.5 35.5t38.5 89.5h190q0 -119 -94 -200.5t-230 -81.5q-135 0 -228 81.5t-93 200.5z" />
    <glyph glyph-name="gbreve" unicode="&#x11f;" horiz-adv-x="1302" 
d="M551 51q-212 0 -341.5 141t-129.5 373q0 246 129 395.5t340 149.5q105 0 187.5 -50t125.5 -140v165h305v-954q0 -214 -149.5 -338.5t-392.5 -124.5q-189 0 -327.5 83.5t-186.5 223.5l315 21q22 -53 75.5 -83t127.5 -30q110 0 168.5 54.5t58.5 160.5v117
q-38 -75 -121.5 -119.5t-183.5 -44.5zM315 1522h189q0 -54 38 -89.5t95 -35.5t95 35.5t38 89.5h191q0 -119 -94 -201t-230 -82q-135 0 -228.5 82t-93.5 201zM397 569q0 -140 65 -223.5t171 -83.5q107 0 170 83t65 224q1 141 -62.5 224.5t-172.5 83.5t-172.5 -83.5
t-63.5 -224.5z" />
    <glyph glyph-name="Gdotaccent" unicode="&#x120;" horiz-adv-x="1507" 
d="M1413 0h-190l-17 213q-51 -114 -168.5 -180t-269.5 -66q-203 0 -360 100t-240.5 272t-83.5 386q0 161 49.5 301t139 242t221.5 160.5t290 58.5q247 0 409.5 -135t215.5 -375l-324 -14q-30 126 -107.5 193t-199.5 67q-124 0 -209.5 -66.5t-124 -176.5t-38.5 -255
q0 -221 94.5 -357.5t277.5 -136.5q137 0 219 80t101 215h-320v232h635v-758zM627 1595v228h319v-228h-319z" />
    <glyph glyph-name="gdotaccent" unicode="&#x121;" horiz-adv-x="1302" 
d="M551 51q-212 0 -341.5 141t-129.5 373q0 246 129 395.5t340 149.5q105 0 187.5 -50t125.5 -140v165h305v-954q0 -214 -149.5 -338.5t-392.5 -124.5q-189 0 -327.5 83.5t-186.5 223.5l315 21q22 -53 75.5 -83t127.5 -30q110 0 168.5 54.5t58.5 160.5v117
q-38 -75 -121.5 -119.5t-183.5 -44.5zM397 569q0 -140 65 -223.5t171 -83.5q107 0 170 83t65 224q1 141 -62.5 224.5t-172.5 83.5t-172.5 -83.5t-63.5 -224.5zM477 1227v227h320v-227h-320z" />
    <glyph glyph-name="uni0122" unicode="&#x122;" horiz-adv-x="1507" 
d="M1413 0h-190l-17 213q-51 -114 -168.5 -180t-269.5 -66q-203 0 -360 100t-240.5 272t-83.5 386q0 161 49.5 301t139 242t221.5 160.5t290 58.5q247 0 409.5 -135t215.5 -375l-324 -14q-30 126 -107.5 193t-199.5 67q-124 0 -209.5 -66.5t-124 -176.5t-38.5 -255
q0 -221 94.5 -357.5t277.5 -136.5q137 0 219 80t101 215h-320v232h635v-758zM559 -389l129 266h248l-186 -266h-191z" />
    <glyph glyph-name="uni0123" unicode="&#x123;" horiz-adv-x="1302" 
d="M551 51q-212 0 -341.5 141t-129.5 373q0 246 129 395.5t340 149.5q105 0 187.5 -50t125.5 -140v165h305v-954q0 -214 -149.5 -338.5t-392.5 -124.5q-189 0 -327.5 83.5t-186.5 223.5l315 21q22 -53 75.5 -83t127.5 -30q110 0 168.5 54.5t58.5 160.5v117
q-38 -75 -121.5 -119.5t-183.5 -44.5zM397 569q0 -140 65 -223.5t171 -83.5q107 0 170 83t65 224q1 141 -62.5 224.5t-172.5 83.5t-172.5 -83.5t-63.5 -224.5zM461 1225v305l141 323h166l-92 -323h115v-305h-330z" />
    <glyph glyph-name="Hcircumflex" unicode="&#x124;" horiz-adv-x="1470" 
d="M152 0v1454h313v-592h541v592h313v-1454h-313v600h-541v-600h-313zM397 1616l176 246h320l178 -246h-211l-125 174l-125 -174h-213z" />
    <glyph glyph-name="hcircumflex" unicode="&#x125;" horiz-adv-x="1251" 
d="M133 1454h311v-504q90 160 310 160q171 0 267.5 -114.5t96.5 -297.5v-698h-309v590q0 136 -37.5 202t-128.5 66q-98 0 -148.5 -69t-50.5 -199v-590h-311v1454zM-49 1616l176 246h319l179 -246h-211l-125 174l-125 -174h-213z" />
    <glyph glyph-name="Hbar" unicode="&#x126;" horiz-adv-x="1798" 
d="M276 1454h314v-197h618v197h314v-197h125v-264h-125v-993h-314v512h-618v-512h-314v993h-124v264h124v197zM590 776h618v217h-618v-217z" />
    <glyph glyph-name="hbar" unicode="&#x127;" 
d="M133 1454h311v-104h224v-174h-224v-226q90 160 310 160q171 0 267.5 -114.5t96.5 -297.5v-698h-309v590q0 136 -37.5 202t-128.5 66q-98 0 -148.5 -69t-50.5 -199v-590h-311v1176h-123v174h123v104z" />
    <glyph glyph-name="Itilde" unicode="&#x128;" horiz-adv-x="616" 
d="M152 1454h313v-1454h-313v1454zM-51 1608q0 142 60.5 222.5t166.5 80.5q90 0 150 -60q8 -7 21 -19.5t19.5 -18t17 -13t20 -10t20.5 -2.5q63 0 63 121h181q0 -141 -61 -222t-167 -81q-94 0 -159 65l-23.5 23.5t-18.5 15.5t-23 13t-23 3q-64 0 -64 -118h-180z" />
    <glyph glyph-name="itilde" unicode="&#x129;" horiz-adv-x="577" 
d="M133 1085h311v-1085h-311v1085zM-72 1239q0 142 61 222.5t167 80.5q90 0 149 -59q7 -6 25 -23.5t25 -23t20.5 -11.5t27.5 -6q64 0 64 121h180q0 -141 -60.5 -222t-166.5 -81q-94 0 -160 66l-23.5 23.5t-18.5 15.5t-23 13t-23 3q-63 0 -63 -119h-181z" />
    <glyph glyph-name="Imacron" unicode="&#x12a;" horiz-adv-x="616" 
d="M152 1454h313v-1454h-313v1454zM12 1630v203h594v-203h-594z" />
    <glyph glyph-name="imacron" unicode="&#x12b;" horiz-adv-x="577" 
d="M133 1085h311v-1085h-311v1085zM-8 1262v202h594v-202h-594z" />
    <glyph glyph-name="Iogonek" unicode="&#x12e;" horiz-adv-x="616" 
d="M152 1454h313v-1454l-51 -68q-68 -89 -68 -135q0 -29 19.5 -48t48.5 -19q50 0 123 47v-166q-81 -67 -199 -60q-78 3 -132 56t-54 127q0 113 90 200l63 66h-153v1454z" />
    <glyph glyph-name="iogonek" unicode="&#x12f;" horiz-adv-x="577" 
d="M133 1085h311v-1085h-2l-51 -68q-67 -87 -67 -135q0 -29 19 -48t48 -19q50 0 123 47v-166q-81 -67 -199 -60q-78 3 -132 56t-54 127q0 113 90 200l64 66h-150v1085zM129 1227v227h320v-227h-320z" />
    <glyph glyph-name="Idotaccent" unicode="&#x130;" horiz-adv-x="616" 
d="M152 1454h313v-1454h-313v1454zM150 1595v228h319v-228h-319z" />
    <glyph glyph-name="dotlessi" unicode="&#x131;" horiz-adv-x="577" 
d="M133 1085h311v-1085h-311v1085z" />
    <glyph glyph-name="IJ" unicode="&#x132;" horiz-adv-x="1779" 
d="M152 1454h313v-1454h-313v1454zM596 514l315 18q0 -147 55 -224t160 -77q106 0 163 75t57 216v932h313v-932q0 -251 -148.5 -403t-392.5 -152q-228 0 -374 153.5t-148 393.5z" />
    <glyph glyph-name="ij" unicode="&#x133;" horiz-adv-x="1234" 
d="M133 1085h311v-1085h-311v1085zM129 1227v227h320v-227h-320zM551 -307v231h127q53 0 84 35.5t31 95.5v1030h309v-1030q0 -362 -365 -362h-186zM786 1227v227h320v-227h-320z" />
    <glyph glyph-name="Jcircumflex" unicode="&#x134;" horiz-adv-x="1284" 
d="M416 532q0 -147 55 -224t160 -77q106 0 162.5 75t56.5 216v932h313v-932q0 -251 -148 -403t-392 -152q-228 0 -374.5 153.5t-148.5 393.5zM672 1616l176 246h319l179 -246h-211l-125 174l-125 -174h-213z" />
    <glyph glyph-name="jcircumflex" unicode="&#x135;" horiz-adv-x="677" 
d="M545 55q0 -362 -365 -362h-186v231h127q53 0 84 35.5t31 95.5v1030h309v-1030zM53 1247l176 246h320l178 -246h-211l-125 174l-125 -174h-213z" />
    <glyph glyph-name="uni0136" unicode="&#x136;" horiz-adv-x="1443" 
d="M152 1454h313v-631l524 631h365l-535 -641l567 -813h-354l-418 604l-149 -176v-428h-313v1454zM508 -389l129 266h248l-187 -266h-190z" />
    <glyph glyph-name="uni0137" unicode="&#x137;" horiz-adv-x="1327" 
d="M133 1454h311v-809l402 440h366l-424 -444l443 -641h-338l-301 465l-148 -160v-305h-311v1454zM428 -389l129 266h248l-187 -266h-190z" />
    <glyph glyph-name="Lacute" unicode="&#x139;" horiz-adv-x="1206" 
d="M152 0v1454h313v-1190h670v-264h-983zM209 1616l129 266h248l-187 -266h-190z" />
    <glyph glyph-name="lacute" unicode="&#x13a;" horiz-adv-x="671" 
d="M133 1454h311v-1139q0 -40 21 -62t61 -22h78v-231h-168q-138 0 -220.5 79.5t-82.5 223.5v1151zM188 1616l129 266h248l-186 -266h-191z" />
    <glyph glyph-name="uni013B" unicode="&#x13b;" horiz-adv-x="1206" 
d="M152 0v1454h313v-1190h670v-264h-983zM418 -389l129 266h248l-187 -266h-190z" />
    <glyph glyph-name="uni013C" unicode="&#x13c;" horiz-adv-x="671" 
d="M133 1454h311v-1139q0 -40 21 -62t61 -22h78v-231h-168q-138 0 -220.5 79.5t-82.5 223.5v1151zM154 -389l129 266h247l-186 -266h-190z" />
    <glyph glyph-name="Lcaron" unicode="&#x13d;" horiz-adv-x="1161" 
d="M152 0v1454h313v-1190h670v-264h-983zM602 1247l129 266h254l-186 -266h-197z" />
    <glyph glyph-name="lcaron" unicode="&#x13e;" horiz-adv-x="1005" 
d="M133 1454h311v-1139q0 -40 21 -62t61 -22h78v-231h-168q-138 0 -220.5 79.5t-82.5 223.5v1151zM543 1245l129 266h254l-187 -266h-196z" />
    <glyph glyph-name="Lslash" unicode="&#x141;" horiz-adv-x="1292" 
d="M8 743l230 107v604h313v-459l192 90l88 -186l-280 -131v-504h670v-264h-983v623l-142 -66z" />
    <glyph glyph-name="lslash" unicode="&#x142;" horiz-adv-x="854" 
d="M274 1454h312v-514l141 49l59 -162l-200 -69v-443q0 -40 21 -62t61 -22h77v-231h-167q-138 0 -221 80t-83 223v344l-81 -29l-60 162l141 49v625z" />
    <glyph glyph-name="Nacute" unicode="&#x143;" horiz-adv-x="1531" 
d="M152 1454h344l571 -995v995h313v-1454h-356l-559 961v-961h-313v1454zM668 1616l129 266h247l-186 -266h-190z" />
    <glyph glyph-name="nacute" unicode="&#x144;" horiz-adv-x="1251" 
d="M133 1085h279l8 -174q82 199 323 199q177 0 276 -110.5t99 -301.5v-698h-309v596q0 136 -37.5 202t-128.5 66q-98 0 -148.5 -69t-50.5 -199v-596h-311v1085zM526 1247l129 266h248l-186 -266h-191z" />
    <glyph glyph-name="uni0145" unicode="&#x145;" horiz-adv-x="1531" 
d="M152 1454h344l571 -995v995h313v-1454h-356l-559 961v-961h-313v1454zM537 -389l129 266h247l-186 -266h-190z" />
    <glyph glyph-name="uni0146" unicode="&#x146;" horiz-adv-x="1251" 
d="M133 1085h279l8 -174q82 199 323 199q177 0 276 -110.5t99 -301.5v-698h-309v596q0 136 -37.5 202t-128.5 66q-98 0 -148.5 -69t-50.5 -199v-596h-311v1085zM401 -389l129 266h248l-186 -266h-191z" />
    <glyph glyph-name="Ncaron" unicode="&#x147;" horiz-adv-x="1531" 
d="M152 1454h344l571 -995v995h313v-1454h-356l-559 961v-961h-313v1454zM426 1864h213l125 -174l125 174h211l-178 -246h-320z" />
    <glyph glyph-name="ncaron" unicode="&#x148;" horiz-adv-x="1251" 
d="M133 1085h279l8 -174q82 199 323 199q177 0 276 -110.5t99 -301.5v-698h-309v596q0 136 -37.5 202t-128.5 66q-98 0 -148.5 -69t-50.5 -199v-596h-311v1085zM285 1495h213l125 -174l125 174h210l-178 -246h-319z" />
    <glyph glyph-name="Eng" unicode="&#x14a;" horiz-adv-x="1531" 
d="M152 1454h342l573 -926v926h313v-1460q0 -151 -93 -239.5t-253 -88.5h-250v221h166q121 0 121 105v8l-606 961v-961h-313v1454z" />
    <glyph glyph-name="eng" unicode="&#x14b;" horiz-adv-x="1251" 
d="M133 1085h279l8 -174q82 199 323 199q177 0 276 -110.5t99 -301.5v-704q0 -151 -94 -239.5t-254 -88.5h-205v211h123q57 0 89 30.5t32 84.5v604q0 136 -37.5 202t-128.5 66q-98 0 -148.5 -69t-50.5 -199v-596h-311v1085z" />
    <glyph glyph-name="Omacron" unicode="&#x14c;" horiz-adv-x="1583" 
d="M791 -33q-330 0 -518.5 203t-188.5 555q0 354 188 558t519 204q332 0 520 -203.5t188 -558.5q0 -352 -188 -555t-520 -203zM408 725q0 -232 101 -363t282 -131q184 0 285.5 130.5t101.5 363.5q0 235 -101.5 366.5t-285.5 131.5q-181 0 -282 -131.5t-101 -366.5zM494 1630
v203h593v-203h-593z" />
    <glyph glyph-name="omacron" unicode="&#x14d;" horiz-adv-x="1273" 
d="M637 -25q-252 0 -404.5 155t-152.5 413t152.5 412.5t404.5 154.5t404.5 -154.5t152.5 -412.5t-152.5 -413t-404.5 -155zM340 1262v202h594v-202h-594zM397 543q0 -157 62.5 -243.5t177.5 -86.5t177.5 86.5t62.5 243.5t-62.5 243t-177.5 86t-177.5 -86t-62.5 -243z" />
    <glyph glyph-name="Ohungarumlaut" unicode="&#x150;" horiz-adv-x="1583" 
d="M791 -33q-330 0 -518.5 203t-188.5 555q0 354 188 558t519 204q332 0 520 -203.5t188 -558.5q0 -352 -188 -555t-520 -203zM408 725q0 -232 101 -363t282 -131q184 0 285.5 130.5t101.5 363.5q0 235 -101.5 366.5t-285.5 131.5q-181 0 -282 -131.5t-101 -366.5zM557 1616
l129 266h248l-186 -266h-191zM864 1616l129 266h248l-186 -266h-191z" />
    <glyph glyph-name="ohungarumlaut" unicode="&#x151;" horiz-adv-x="1273" 
d="M637 -25q-252 0 -404.5 155t-152.5 413t152.5 412.5t404.5 154.5t404.5 -154.5t152.5 -412.5t-152.5 -413t-404.5 -155zM397 543q0 -157 62.5 -243.5t177.5 -86.5t177.5 86.5t62.5 243.5t-62.5 243t-177.5 86t-177.5 -86t-62.5 -243zM403 1247l129 266h248l-186 -266
h-191zM711 1247l129 266h247l-186 -266h-190z" />
    <glyph glyph-name="OE" unicode="&#x152;" horiz-adv-x="2279" 
d="M784 -33q-158 0 -290 58t-221.5 159.5t-139 240.5t-49.5 300t49.5 301t139 242t221.5 160.5t290 58.5q263 0 428 -162v129h957v-264h-641v-332h616v-258h-616v-336h657v-264h-973v129q-165 -162 -428 -162zM406 725q0 -101 22.5 -188.5t67.5 -156.5t119 -109t169 -40
q96 0 170.5 40t119.5 109t68 156.5t23 188.5q0 102 -23 190t-68 157.5t-119.5 110t-170.5 40.5q-95 0 -169 -40.5t-119 -110t-67.5 -157.5t-22.5 -190z" />
    <glyph glyph-name="oe" unicode="&#x153;" horiz-adv-x="2060" 
d="M637 -25q-252 0 -404.5 155t-152.5 413t152.5 412.5t404.5 154.5t405 -156q153 156 406 156q233 0 382 -156t148 -434v-57h-764q6 -122 68 -190t166 -68q68 0 123.5 36t81.5 99l311 -23q-49 -158 -189 -250t-327 -92q-253 0 -406 156q-153 -156 -405 -156zM397 543
q0 -157 62.5 -243.5t177.5 -86.5t177.5 86.5t62.5 243.5t-62.5 243t-177.5 86t-177.5 -86t-62.5 -243zM1217 649h448q-11 117 -71 174.5t-146 57.5q-97 0 -158 -62t-73 -170z" />
    <glyph glyph-name="Racute" unicode="&#x154;" horiz-adv-x="1427" 
d="M788 1454q233 0 379 -115.5t146 -320.5q0 -134 -69.5 -224.5t-188.5 -125.5q114 -15 169 -75t66 -177l35 -416h-315l-27 367q-7 91 -63 127t-185 36h-270v-530h-313v1454h636zM465 795h280q119 0 182.5 50.5t63.5 145.5q0 97 -63.5 148t-182.5 51h-280v-395zM606 1616
l129 266h248l-186 -266h-191z" />
    <glyph glyph-name="racute" unicode="&#x155;" horiz-adv-x="874" 
d="M133 1085h295l6 -217q33 110 96.5 163.5t165.5 53.5h99v-231h-103q-131 0 -189.5 -61t-58.5 -189v-604h-311v1085zM375 1247l129 266h248l-187 -266h-190z" />
    <glyph glyph-name="uni0156" unicode="&#x156;" horiz-adv-x="1427" 
d="M788 1454q233 0 379 -115.5t146 -320.5q0 -134 -69.5 -224.5t-188.5 -125.5q114 -15 169 -75t66 -177l35 -416h-315l-27 367q-7 91 -63 127t-185 36h-270v-530h-313v1454h636zM465 795h280q119 0 182.5 50.5t63.5 145.5q0 97 -63.5 148t-182.5 51h-280v-395zM514 -389
l129 266h248l-186 -266h-191z" />
    <glyph glyph-name="uni0157" unicode="&#x157;" horiz-adv-x="874" 
d="M133 1085h295l6 -217q33 110 96.5 163.5t165.5 53.5h99v-231h-103q-131 0 -189.5 -61t-58.5 -189v-604h-311v1085zM66 -389l129 266h247l-186 -266h-190z" />
    <glyph glyph-name="Rcaron" unicode="&#x158;" horiz-adv-x="1427" 
d="M788 1454q233 0 379 -115.5t146 -320.5q0 -134 -69.5 -224.5t-188.5 -125.5q114 -15 169 -75t66 -177l35 -416h-315l-27 367q-7 91 -63 127t-185 36h-270v-530h-313v1454h636zM365 1864h213l124 -174l125 174h211l-178 -246h-319zM465 795h280q119 0 182.5 50.5
t63.5 145.5q0 97 -63.5 148t-182.5 51h-280v-395z" />
    <glyph glyph-name="rcaron" unicode="&#x159;" horiz-adv-x="874" 
d="M133 1085h295l6 -217q33 110 96.5 163.5t165.5 53.5h99v-231h-103q-131 0 -189.5 -61t-58.5 -189v-604h-311v1085zM133 1495h213l125 -174l125 174h211l-178 -246h-320z" />
    <glyph glyph-name="Sacute" unicode="&#x15a;" horiz-adv-x="1390" 
d="M418 496q22 -121 103.5 -189.5t215.5 -68.5q107 0 170 41.5t62 117.5q-1 79 -75 130t-245 94q-251 59 -383.5 163t-132.5 273q0 197 150 313.5t399 116.5q244 0 400.5 -135t181.5 -359l-312 -12q-14 113 -87.5 179.5t-188.5 66.5q-102 0 -165 -48t-60 -126q1 -30 13 -55
t36 -44.5t48 -33.5t64 -27.5t68.5 -21t75.5 -19.5q253 -56 391.5 -166t138.5 -278q0 -201 -157.5 -317t-399.5 -116q-268 0 -438 136t-187 366zM612 1616l129 266h248l-186 -266h-191z" />
    <glyph glyph-name="sacute" unicode="&#x15b;" horiz-adv-x="1181" 
d="M780 733q-12 73 -68 117.5t-128 44.5q-71 0 -117 -35t-43 -92q5 -101 199 -131q250 -40 363.5 -116t113.5 -224q0 -157 -133 -239.5t-351 -82.5q-238 0 -381 98t-155 271l311 16q14 -79 70 -123t149 -44q67 0 119.5 28t52.5 82q-1 40 -33 67t-60.5 35.5t-96.5 23.5
q-14 3 -21 5q-243 46 -355 118t-112 214q0 163 130 254.5t362 91.5q205 0 336.5 -98t159.5 -269zM498 1247l129 266h247l-186 -266h-190z" />
    <glyph glyph-name="Scircumflex" unicode="&#x15c;" horiz-adv-x="1390" 
d="M418 496q22 -121 103.5 -189.5t215.5 -68.5q107 0 170 41.5t62 117.5q-1 79 -75 130t-245 94q-251 59 -383.5 163t-132.5 273q0 197 150 313.5t399 116.5q244 0 400.5 -135t181.5 -359l-312 -12q-14 113 -87.5 179.5t-188.5 66.5q-102 0 -165 -48t-60 -126q1 -30 13 -55
t36 -44.5t48 -33.5t64 -27.5t68.5 -21t75.5 -19.5q253 -56 391.5 -166t138.5 -278q0 -201 -157.5 -317t-399.5 -116q-268 0 -438 136t-187 366zM375 1616l176 246h319l179 -246h-211l-125 174l-125 -174h-213z" />
    <glyph glyph-name="scircumflex" unicode="&#x15d;" horiz-adv-x="1181" 
d="M780 733q-12 73 -68 117.5t-128 44.5q-71 0 -117 -35t-43 -92q5 -101 199 -131q250 -40 363.5 -116t113.5 -224q0 -157 -133 -239.5t-351 -82.5q-238 0 -381 98t-155 271l311 16q14 -79 70 -123t149 -44q67 0 119.5 28t52.5 82q-1 40 -33 67t-60.5 35.5t-96.5 23.5
q-14 3 -21 5q-243 46 -355 118t-112 214q0 163 130 254.5t362 91.5q205 0 336.5 -98t159.5 -269zM260 1247l176 246h320l178 -246h-211l-125 174l-125 -174h-213z" />
    <glyph glyph-name="Scedilla" unicode="&#x15e;" horiz-adv-x="1390" 
d="M418 496q22 -121 103.5 -189.5t215.5 -68.5q107 0 170 41.5t62 117.5q-1 79 -75 130t-245 94q-251 59 -383.5 163t-132.5 273q0 197 150 313.5t399 116.5q244 0 400.5 -135t181.5 -359l-312 -12q-14 113 -87.5 179.5t-188.5 66.5q-102 0 -165 -48t-60 -126q1 -30 13 -55
t36 -44.5t48 -33.5t64 -27.5t68.5 -21t75.5 -19.5q253 -56 391.5 -166t138.5 -278q0 -129 -68.5 -226t-184.5 -149t-265 -58l-39 -41q83 0 141 -57.5t58 -144.5q0 -89 -68.5 -151t-159.5 -62q-147 0 -276 153l121 113q44 -56 69 -74q35 -26 74 -26q35 0 57.5 20.5t22.5 52.5
q0 44 -43 61.5t-94 -1.5l-70 90l66 74q-226 25 -367 157t-156 338z" />
    <glyph glyph-name="scedilla" unicode="&#x15f;" horiz-adv-x="1181" 
d="M780 733q-12 73 -68 117.5t-128 44.5q-71 0 -117 -35t-43 -92q5 -101 199 -131q250 -40 363.5 -116t113.5 -224q0 -150 -120.5 -232t-322.5 -90l-39 -41q83 0 141 -57.5t58 -144.5q0 -89 -68 -151t-159 -62q-148 0 -277 153l121 113q45 -57 73 -77q34 -23 71 -23
q35 0 57 20.5t22 52.5q0 44 -43 61.5t-94 -1.5l-69 90l65 72q-196 20 -311 115t-125 249l311 16q14 -79 70 -123t149 -44q67 0 119.5 28t52.5 82q-1 40 -33 67t-60.5 35.5t-96.5 23.5q-14 3 -21 5q-243 46 -355 118t-112 214q0 163 130 254.5t362 91.5q205 0 336.5 -98
t159.5 -269z" />
    <glyph glyph-name="Scaron" unicode="&#x160;" horiz-adv-x="1390" 
d="M418 496q22 -121 103.5 -189.5t215.5 -68.5q107 0 170 41.5t62 117.5q-1 79 -75 130t-245 94q-251 59 -383.5 163t-132.5 273q0 197 150 313.5t399 116.5q244 0 400.5 -135t181.5 -359l-312 -12q-14 113 -87.5 179.5t-188.5 66.5q-102 0 -165 -48t-60 -126q1 -30 13 -55
t36 -44.5t48 -33.5t64 -27.5t68.5 -21t75.5 -19.5q253 -56 391.5 -166t138.5 -278q0 -201 -157.5 -317t-399.5 -116q-268 0 -438 136t-187 366zM371 1864h213l125 -174l125 174h210l-178 -246h-319z" />
    <glyph glyph-name="scaron" unicode="&#x161;" horiz-adv-x="1181" 
d="M780 733q-12 73 -68 117.5t-128 44.5q-71 0 -117 -35t-43 -92q5 -101 199 -131q250 -40 363.5 -116t113.5 -224q0 -157 -133 -239.5t-351 -82.5q-238 0 -381 98t-155 271l311 16q14 -79 70 -123t149 -44q67 0 119.5 28t52.5 82q-1 40 -33 67t-60.5 35.5t-96.5 23.5
q-14 3 -21 5q-243 46 -355 118t-112 214q0 163 130 254.5t362 91.5q205 0 336.5 -98t159.5 -269zM258 1495h213l125 -174l125 174h211l-178 -246h-320z" />
    <glyph glyph-name="uni0162" unicode="&#x162;" horiz-adv-x="1294" 
d="M1239 1454v-264h-434v-1190h-80l-61 -66q83 0 140.5 -57.5t57.5 -144.5q0 -89 -68 -151t-159 -62q-148 0 -277 153l121 113q45 -57 73 -77q34 -23 71 -23q35 0 57 20.5t22 52.5q0 44 -43 61.5t-94 -1.5l-69 90l84 92h-91v1190h-434v264h1184z" />
    <glyph glyph-name="uni0163" unicode="&#x163;" horiz-adv-x="917" 
d="M258 1331h311v-246h285v-229h-285v-500q0 -125 119 -125h168v-231h-233h-21l-61 -66q83 0 140.5 -57.5t57.5 -144.5q0 -89 -68 -151t-159 -62q-147 0 -276 153l120 113q45 -57 73 -77q34 -23 71 -23q35 0 57.5 20.5t22.5 52.5q0 44 -43.5 61.5t-94.5 -1.5l-69 90l100 110
q-215 66 -215 338v500h-176v229h176v246z" />
    <glyph glyph-name="Tcaron" unicode="&#x164;" horiz-adv-x="1294" 
d="M1239 1454v-264h-434v-1190h-316v1190h-434v264h1184zM307 1864h213l125 -174l125 174h211l-178 -246h-320z" />
    <glyph glyph-name="tcaron" unicode="&#x165;" horiz-adv-x="1097" 
d="M258 1331h311v-246h285v-229h-285v-500q0 -125 119 -125h168v-231h-233q-365 0 -365 356v500h-176v229h176v246zM655 1245l129 266h254l-186 -266h-197z" />
    <glyph glyph-name="Tbar" unicode="&#x166;" horiz-adv-x="1294" 
d="M1239 1454v-264h-434v-434h250v-174h-250v-582h-316v582h-249v174h249v434h-434v264h1184z" />
    <glyph glyph-name="tbar" unicode="&#x167;" horiz-adv-x="917" 
d="M258 1331h311v-246h285v-229h-285v-207h285v-174h-285v-119q0 -125 119 -125h168v-231h-233q-365 0 -365 356v119h-176v174h176v207h-176v229h176v246z" />
    <glyph glyph-name="Utilde" unicode="&#x168;" horiz-adv-x="1441" 
d="M1321 526q0 -258 -161.5 -408.5t-438.5 -150.5t-438.5 150.5t-161.5 408.5v930h313v-930q0 -145 74.5 -220t212.5 -75q137 0 212 75.5t75 219.5v930h313v-930zM360 1608q0 142 61 222.5t167 80.5q89 0 149 -60q7 -6 21 -19.5t20 -18.5t16.5 -12.5t20.5 -10t21 -2.5
q63 0 63 121h180q0 -141 -60.5 -222t-166.5 -81q-95 0 -160 65l-23.5 23.5t-18.5 15.5t-23 13t-23 3q-63 0 -63 -118h-181z" />
    <glyph glyph-name="utilde" unicode="&#x169;" horiz-adv-x="1245" 
d="M1110 0h-281l-6 170q-82 -195 -319 -195q-174 0 -272.5 111t-98.5 301v698h311v-596q0 -136 36 -202t126 -66q95 0 145 69.5t50 198.5v596h309v-1085zM258 1239q0 142 60.5 222.5t166.5 80.5q91 0 150 -59q7 -6 25 -23.5t25 -23t20.5 -11.5t27.5 -6q64 0 64 121h180
q0 -141 -60.5 -222t-166.5 -81q-94 0 -160 66l-23.5 23.5t-18.5 15.5t-23 13t-23 3q-64 0 -64 -119h-180z" />
    <glyph glyph-name="Umacron" unicode="&#x16a;" horiz-adv-x="1441" 
d="M1321 526q0 -258 -161.5 -408.5t-438.5 -150.5t-438.5 150.5t-161.5 408.5v930h313v-930q0 -145 74.5 -220t212.5 -75q137 0 212 75.5t75 219.5v930h313v-930zM424 1630v203h594v-203h-594z" />
    <glyph glyph-name="umacron" unicode="&#x16b;" horiz-adv-x="1245" 
d="M1110 0h-281l-6 170q-82 -195 -319 -195q-174 0 -272.5 111t-98.5 301v698h311v-596q0 -136 36 -202t126 -66q95 0 145 69.5t50 198.5v596h309v-1085zM322 1262v202h593v-202h-593z" />
    <glyph glyph-name="Ubreve" unicode="&#x16c;" horiz-adv-x="1441" 
d="M1321 526q0 -258 -161.5 -408.5t-438.5 -150.5t-438.5 150.5t-161.5 408.5v930h313v-930q0 -145 74.5 -220t212.5 -75q137 0 212 75.5t75 219.5v930h313v-930zM399 1890h189q0 -54 38 -89.5t95 -35.5t95 35.5t38 89.5h190q0 -119 -93.5 -200.5t-229.5 -81.5
q-135 0 -228.5 82t-93.5 200z" />
    <glyph glyph-name="ubreve" unicode="&#x16d;" horiz-adv-x="1245" 
d="M1110 0h-281l-6 170q-82 -195 -319 -195q-174 0 -272.5 111t-98.5 301v698h311v-596q0 -136 36 -202t126 -66q95 0 145 69.5t50 198.5v596h309v-1085zM295 1522h188q0 -54 38 -89.5t95 -35.5t95.5 35.5t38.5 89.5h190q0 -119 -94 -201t-230 -82q-135 0 -228 82t-93 201z
" />
    <glyph glyph-name="Uring" unicode="&#x16e;" horiz-adv-x="1441" 
d="M1321 526q0 -258 -161.5 -408.5t-438.5 -150.5t-438.5 150.5t-161.5 408.5v930h313v-930q0 -145 74.5 -220t212.5 -75q137 0 212 75.5t75 219.5v930h313v-930zM510 1769q0 87 62 149t149 62q86 0 147.5 -62.5t61.5 -148.5q0 -88 -61 -148t-148 -60q-88 0 -149.5 59.5
t-61.5 148.5zM647 1769q0 -29 21.5 -50t52.5 -21q29 0 49.5 21t20.5 50q0 28 -20.5 50t-49.5 22q-30 0 -52 -22t-22 -50z" />
    <glyph glyph-name="uring" unicode="&#x16f;" horiz-adv-x="1245" 
d="M1110 0h-281l-6 170q-82 -195 -319 -195q-174 0 -272.5 111t-98.5 301v698h311v-596q0 -136 36 -202t126 -66q95 0 145 69.5t50 198.5v596h309v-1085zM408 1401q0 87 61.5 149t148.5 62q86 0 147.5 -62.5t61.5 -148.5q0 -89 -61 -149t-148 -60q-88 0 -149 60t-61 149z
M545 1401q0 -29 21.5 -50.5t51.5 -21.5q29 0 49.5 21.5t20.5 50.5q0 28 -20.5 50t-49.5 22q-30 0 -51.5 -22t-21.5 -50z" />
    <glyph glyph-name="Uhungarumlaut" unicode="&#x170;" horiz-adv-x="1441" 
d="M1321 526q0 -258 -161.5 -408.5t-438.5 -150.5t-438.5 150.5t-161.5 408.5v930h313v-930q0 -145 74.5 -220t212.5 -75q137 0 212 75.5t75 219.5v930h313v-930zM487 1616l129 266h248l-186 -266h-191zM793 1616l129 266h247l-186 -266h-190z" />
    <glyph glyph-name="uhungarumlaut" unicode="&#x171;" horiz-adv-x="1245" 
d="M1110 0h-281l-6 170q-82 -195 -319 -195q-174 0 -272.5 111t-98.5 301v698h311v-596q0 -136 36 -202t126 -66q95 0 145 69.5t50 198.5v596h309v-1085zM383 1247l129 266h248l-187 -266h-190zM690 1247l129 266h248l-186 -266h-191z" />
    <glyph glyph-name="Uogonek" unicode="&#x172;" horiz-adv-x="1441" 
d="M1321 526q0 -204 -104 -343.5t-291 -190.5l-45 -60q-68 -89 -68 -135q0 -29 19.5 -48t48.5 -19q50 0 123 47v-166q-81 -67 -199 -60q-78 3 -132.5 56.5t-54.5 126.5q0 112 91 200l32 33h-20q-277 0 -438.5 150.5t-161.5 408.5v930h313v-930q0 -145 74.5 -220t212.5 -75
q137 0 212 75.5t75 219.5v930h313v-930z" />
    <glyph glyph-name="uogonek" unicode="&#x173;" horiz-adv-x="1245" 
d="M1110 0l-51 -68q-68 -89 -68 -135q0 -29 19.5 -48t48.5 -19q50 0 123 47v-166q-81 -67 -199 -60q-78 3 -132 56t-54 127q0 113 90 200l63 66h-121l-6 170q-82 -195 -319 -195q-174 0 -272.5 111t-98.5 301v698h311v-596q0 -136 36 -202t126 -66q95 0 145 69.5t50 198.5
v596h309v-1085z" />
    <glyph glyph-name="Wcircumflex" unicode="&#x174;" horiz-adv-x="2029" 
d="M51 1454h326l248 -1020l252 1020h274l254 -1020l246 1020h327l-393 -1454h-334l-237 907l-236 -907h-336zM678 1616l176 246h320l178 -246h-211l-125 174l-125 -174h-213z" />
    <glyph glyph-name="wcircumflex" unicode="&#x175;" horiz-adv-x="1740" 
d="M995 1085l207 -727l201 727h295l-330 -1085h-297l-201 680l-200 -680h-297l-330 1085h295l201 -727l206 727h250zM535 1247l176 246h319l178 -246h-211l-125 174l-124 -174h-213z" />
    <glyph glyph-name="Ycircumflex" unicode="&#x176;" horiz-adv-x="1423" 
d="M51 1454h344l318 -590l317 590h342l-502 -889v-565h-313v565zM377 1616l176 246h319l179 -246h-211l-125 174l-125 -174h-213z" />
    <glyph glyph-name="ycircumflex" unicode="&#x177;" horiz-adv-x="1204" 
d="M43 1085h295l268 -761l262 761h293l-428 -1189q-37 -104 -110 -153.5t-191 -49.5h-196v225h137q49 0 76 16.5t45 53.5l26 67h-86zM266 1247l176 246h320l178 -246h-211l-125 174l-125 -174h-213z" />
    <glyph glyph-name="Ydieresis" unicode="&#x178;" horiz-adv-x="1423" 
d="M51 1454h344l318 -590l317 590h342l-502 -889v-565h-313v565zM340 1595v228h319v-228h-319zM760 1595v228h319v-228h-319z" />
    <glyph glyph-name="Zacute" unicode="&#x179;" horiz-adv-x="1222" 
d="M1149 1214l-725 -950h741v-264h-1108v262l705 928h-662v264h1049v-240zM528 1616l129 266h248l-186 -266h-191z" />
    <glyph glyph-name="zacute" unicode="&#x17a;" horiz-adv-x="1220" 
d="M1090 846l-615 -615h631v-231h-991v244l606 610h-574v231h943v-239zM516 1247l129 266h248l-186 -266h-191z" />
    <glyph glyph-name="Zdotaccent" unicode="&#x17b;" horiz-adv-x="1222" 
d="M1149 1214l-725 -950h741v-264h-1108v262l705 928h-662v264h1049v-240zM469 1595v228h319v-228h-319z" />
    <glyph glyph-name="zdotaccent" unicode="&#x17c;" horiz-adv-x="1220" 
d="M1090 846l-615 -615h631v-231h-991v244l606 610h-574v231h943v-239zM457 1227v227h319v-227h-319z" />
    <glyph glyph-name="Zcaron" unicode="&#x17d;" horiz-adv-x="1222" 
d="M1149 1214l-725 -950h741v-264h-1108v262l705 928h-662v264h1049v-240zM289 1864h213l125 -174l125 174h211l-179 -246h-319z" />
    <glyph glyph-name="zcaron" unicode="&#x17e;" horiz-adv-x="1220" 
d="M1090 846l-615 -615h631v-231h-991v244l606 610h-574v231h943v-239zM276 1495h213l125 -174l125 174h211l-178 -246h-319z" />
    <glyph glyph-name="uni018F" unicode="&#x18f;" horiz-adv-x="1546" 
d="M1139 827q-10 175 -114.5 285.5t-258.5 110.5q-104 0 -185.5 -55.5t-125.5 -161.5l-332 18q67 214 239 338.5t398 124.5q198 0 357.5 -92.5t253 -267t93.5 -400.5q0 -164 -56 -306.5t-151.5 -241.5t-224.5 -155.5t-272 -56.5q-134 0 -253 49.5t-211 141.5t-148 235.5
t-62 319.5l-2 114h1055zM422 563q29 -158 118.5 -245t223.5 -87q141 0 235.5 87t128.5 245h-706z" />
    <glyph glyph-name="florin" unicode="&#x192;" horiz-adv-x="1085" 
d="M92 0v248h127q51 0 81 28.5t36 81.5l49 451h-174v231h201l12 121q15 137 105 215.5t231 77.5l256 -2v-250h-176q-113 0 -125 -110l-6 -52h307v-231h-334l-57 -518q-15 -139 -104.5 -217.5t-231.5 -75.5z" />
    <glyph glyph-name="uni01B7" unicode="&#x1b7;" horiz-adv-x="1318" 
d="M94 500q130 -129 270.5 -199t268.5 -70q122 0 196 56.5t74 148.5q0 94 -74 151t-194 56l-131 -2v229l319 320h-719v264h1098v-274l-348 -342q165 -17 268 -128.5t103 -273.5q0 -211 -162.5 -340t-429.5 -129q-153 0 -297.5 57t-241.5 154v322z" />
    <glyph glyph-name="uni01CD" unicode="&#x1cd;" horiz-adv-x="1519" 
d="M51 0l524 1454h369l524 -1454h-323l-107 307h-557l-106 -307h-324zM420 1864h213l125 -174l125 174h211l-179 -246h-319zM569 567h381l-190 559z" />
    <glyph glyph-name="uni01CE" unicode="&#x1ce;" horiz-adv-x="1267" 
d="M96 750q32 174 162.5 267t343.5 93q247 0 373.5 -120t126.5 -353v-340q0 -50 17 -68t50 -18h41v-211l-55 -2q-101 -3 -146 6q-145 27 -167 160q-40 -87 -135 -138t-238 -51q-168 0 -278.5 85t-110.5 225q0 75 26.5 129.5t82.5 92.5t127 63t176 46l299 60
q-1 118 -48 174.5t-141 56.5q-157 0 -194 -174zM272 1495h213l125 -174l125 174h211l-178 -246h-319zM397 297q0 -53 44 -87t124 -34q103 0 166.5 76.5t63.5 218.5v12l-181 -32q-49 -10 -72 -15.5t-57 -17.5t-49 -26t-27 -38.5t-12 -56.5z" />
    <glyph glyph-name="uni01E4" unicode="&#x1e4;" horiz-adv-x="1591" 
d="M778 758h639v-88q0 -101 -14 -178h115v-146h-152q-37 -99 -97.5 -173t-137.5 -118.5t-164 -66t-183 -21.5q-158 0 -290 58t-221.5 159.5t-139 240.5t-49.5 300t49.5 301t139 242t221.5 160.5t290 58.5q244 0 407 -131.5t218 -358.5l-324 -16q-30 113 -108.5 177.5
t-198.5 64.5q-124 0 -209.5 -66.5t-124 -176.5t-38.5 -255q0 -221 94.5 -357.5t277.5 -136.5q168 0 250 115h-250v146h309q11 50 11 88h-320v178z" />
    <glyph glyph-name="uni01E5" unicode="&#x1e5;" horiz-adv-x="1370" 
d="M551 51q-212 0 -341.5 141t-129.5 373q0 246 129 395.5t340 149.5q105 0 187.5 -50t125.5 -140v165h305v-450h109v-174h-109v-330q0 -214 -149.5 -338.5t-392.5 -124.5q-189 0 -327.5 83.5t-186.5 223.5l315 21q22 -53 75.5 -83t127.5 -30q110 0 168.5 54.5t58.5 160.5
v117q-38 -75 -121.5 -119.5t-183.5 -44.5zM397 569q0 -140 65 -223.5t171 -83.5q84 0 142 52t81 147h-285v174h293q-12 112 -74 177t-157 65q-109 0 -172.5 -83.5t-63.5 -224.5z" />
    <glyph glyph-name="Gcaron" unicode="&#x1e6;" horiz-adv-x="1507" 
d="M1413 0h-190l-17 213q-51 -114 -168.5 -180t-269.5 -66q-203 0 -360 100t-240.5 272t-83.5 386q0 161 49.5 301t139 242t221.5 160.5t290 58.5q247 0 409.5 -135t215.5 -375l-324 -14q-30 126 -107.5 193t-199.5 67q-124 0 -209.5 -66.5t-124 -176.5t-38.5 -255
q0 -221 94.5 -357.5t277.5 -136.5q137 0 219 80t101 215h-320v232h635v-758zM444 1864h213l125 -174l125 174h211l-178 -246h-319z" />
    <glyph glyph-name="gcaron" unicode="&#x1e7;" horiz-adv-x="1302" 
d="M551 51q-212 0 -341.5 141t-129.5 373q0 246 129 395.5t340 149.5q105 0 187.5 -50t125.5 -140v165h305v-954q0 -214 -149.5 -338.5t-392.5 -124.5q-189 0 -327.5 83.5t-186.5 223.5l315 21q22 -53 75.5 -83t127.5 -30q110 0 168.5 54.5t58.5 160.5v117
q-38 -75 -121.5 -119.5t-183.5 -44.5zM297 1495h213l125 -174l125 174h211l-178 -246h-320zM397 569q0 -140 65 -223.5t171 -83.5q107 0 170 83t65 224q1 141 -62.5 224.5t-172.5 83.5t-172.5 -83.5t-63.5 -224.5z" />
    <glyph glyph-name="uni01E8" unicode="&#x1e8;" horiz-adv-x="1443" 
d="M152 1454h313v-631l524 631h365l-535 -641l567 -813h-354l-418 604l-149 -176v-428h-313v1454zM369 1864h213l125 -174l124 174h211l-178 -246h-319z" />
    <glyph glyph-name="uni01E9" unicode="&#x1e9;" horiz-adv-x="1327" 
d="M133 1454h311v-809l402 440h366l-424 -444l443 -641h-338l-301 465l-148 -160v-305h-311v1454zM-51 1864h213l125 -174l125 174h211l-179 -246h-319z" />
    <glyph glyph-name="uni01EE" unicode="&#x1ee;" horiz-adv-x="1318" 
d="M94 500q130 -129 270.5 -199t268.5 -70q122 0 196 56.5t74 148.5q0 94 -74 151t-194 56l-131 -2v229l319 320h-719v264h1098v-274l-348 -342q165 -17 268 -128.5t103 -273.5q0 -211 -162.5 -340t-429.5 -129q-153 0 -297.5 57t-241.5 154v322zM311 1864h213l125 -174
l125 174h211l-178 -246h-320z" />
    <glyph glyph-name="uni01EF" unicode="&#x1ef;" horiz-adv-x="1318" 
d="M94 131q130 -129 270.5 -198.5t268.5 -69.5q122 0 196 56.5t74 148.5q0 94 -74 151t-194 55l-131 -2v230l319 319h-719v264h1098v-274l-348 -342q165 -17 268 -128t103 -273q0 -211 -162.5 -340t-429.5 -129q-153 0 -297.5 57t-241.5 154v321zM311 1495h213l125 -174
l125 174h211l-178 -246h-320z" />
    <glyph glyph-name="uni0218" unicode="&#x218;" horiz-adv-x="1390" 
d="M418 496q22 -121 103.5 -189.5t215.5 -68.5q107 0 170 41.5t62 117.5q-1 79 -75 130t-245 94q-251 59 -383.5 163t-132.5 273q0 197 150 313.5t399 116.5q244 0 400.5 -135t181.5 -359l-312 -12q-14 113 -87.5 179.5t-188.5 66.5q-102 0 -165 -48t-60 -126q1 -30 13 -55
t36 -44.5t48 -33.5t64 -27.5t68.5 -21t75.5 -19.5q253 -56 391.5 -166t138.5 -278q0 -201 -157.5 -317t-399.5 -116q-268 0 -438 136t-187 366zM489 -389l129 266h248l-186 -266h-191z" />
    <glyph glyph-name="uni0219" unicode="&#x219;" horiz-adv-x="1181" 
d="M780 733q-12 73 -68 117.5t-128 44.5q-71 0 -117 -35t-43 -92q5 -101 199 -131q250 -40 363.5 -116t113.5 -224q0 -157 -133 -239.5t-351 -82.5q-238 0 -381 98t-155 271l311 16q14 -79 70 -123t149 -44q67 0 119.5 28t52.5 82q-1 40 -33 67t-60.5 35.5t-96.5 23.5
q-14 3 -21 5q-243 46 -355 118t-112 214q0 163 130 254.5t362 91.5q205 0 336.5 -98t159.5 -269zM379 -389l129 266h248l-187 -266h-190z" />
    <glyph glyph-name="uni021A" unicode="&#x21a;" horiz-adv-x="1294" 
d="M1239 1454v-264h-434v-1190h-316v1190h-434v264h1184zM424 -389l129 266h248l-187 -266h-190z" />
    <glyph glyph-name="uni021B" unicode="&#x21b;" horiz-adv-x="917" 
d="M258 1331h311v-246h285v-229h-285v-500q0 -125 119 -125h168v-231h-233q-365 0 -365 356v500h-176v229h176v246zM301 -389l129 266h248l-186 -266h-191z" />
    <glyph glyph-name="uni0237" unicode="&#x237;" horiz-adv-x="677" 
d="M545 55q0 -362 -365 -362h-186v231h127q53 0 84 35.5t31 95.5v1030h309v-1030z" />
    <glyph glyph-name="uni0259" unicode="&#x259;" horiz-adv-x="1249" 
d="M1169 543q0 -258 -152.5 -413t-404.5 -155q-233 0 -382 156t-148 434v58h764q-6 122 -68 190t-166 68q-68 0 -123 -36.5t-81 -99.5l-312 23q49 158 189 250t327 92q252 0 404.5 -154.5t152.5 -412.5zM395 436q11 -116 71 -173.5t146 -57.5q98 0 159 61.5t73 169.5h-449z
" />
    <glyph glyph-name="uni0292" unicode="&#x292;" horiz-adv-x="1318" 
d="M94 131q130 -129 270.5 -198.5t268.5 -69.5q122 0 196 56.5t74 148.5q0 94 -74 151t-194 55l-131 -2v230l319 319h-719v264h1098v-274l-348 -342q165 -17 268 -128t103 -273q0 -211 -162.5 -340t-429.5 -129q-153 0 -297.5 57t-241.5 154v321z" />
    <glyph glyph-name="uni02B9" unicode="&#x2b9;" horiz-adv-x="534" 
d="M457 1513l-187 -266h-190l129 266h248z" />
    <glyph glyph-name="uni02BC" unicode="&#x2bc;" horiz-adv-x="497" 
d="M414 1149l-142 -324h-166l93 324h-115v305h330v-305z" />
    <glyph glyph-name="circumflex" unicode="&#x2c6;" horiz-adv-x="833" 
d="M543 1247l-125 174l-125 -174h-213l176 246h319l179 -246h-211z" />
    <glyph glyph-name="caron" unicode="&#x2c7;" horiz-adv-x="833" 
d="M543 1493h211l-179 -246h-319l-176 246h213l125 -174z" />
    <glyph glyph-name="uni02C8" unicode="&#x2c8;" horiz-adv-x="399" 
d="M80 1454h239v-172l-28 -311h-182l-29 311v172z" />
    <glyph glyph-name="breve" unicode="&#x2d8;" horiz-adv-x="804" 
d="M268 1522q0 -54 38 -89.5t95 -35.5t95.5 35.5t38.5 89.5h190q0 -119 -94 -201t-230 -82q-135 0 -228 82t-93 201h188z" />
    <glyph glyph-name="dotaccent" unicode="&#x2d9;" horiz-adv-x="479" 
d="M80 1454h319v-227h-319v227z" />
    <glyph glyph-name="ring" unicode="&#x2da;" horiz-adv-x="579" 
d="M291 1192q-88 0 -149.5 60t-61.5 149q0 87 62 149t149 62q86 0 147.5 -62.5t61.5 -148.5q0 -89 -61 -149t-148 -60zM217 1401q0 -29 21.5 -50.5t52.5 -21.5q29 0 49 21t20 51q0 28 -20 50t-49 22q-30 0 -52 -22t-22 -50z" />
    <glyph glyph-name="ogonek" unicode="&#x2db;" horiz-adv-x="544" 
d="M342 -68q-68 -89 -68 -135q0 -29 19.5 -48t48.5 -19q50 0 123 47v-166q-81 -67 -199 -60q-78 3 -132 56t-54 127q0 113 90 200l63 66h160z" />
    <glyph glyph-name="tilde" unicode="&#x2dc;" horiz-adv-x="878" 
d="M324 1358q-64 0 -64 -119h-180q0 142 60.5 222.5t166.5 80.5q91 0 150 -59q7 -6 25 -23.5t25 -23t20.5 -11.5t27.5 -6q63 0 63 121h181q0 -141 -61 -222t-167 -81q-93 0 -159 66l-23.5 23.5t-18.5 15.5t-23 13t-23 3z" />
    <glyph glyph-name="hungarumlaut" unicode="&#x2dd;" horiz-adv-x="841" 
d="M457 1513l-187 -266h-190l129 266h248zM387 1247l129 266h248l-186 -266h-191z" />
    <glyph glyph-name="gravecomb" unicode="&#x300;" horiz-adv-x="0" 
d="M80 1513h254l129 -266h-197z" />
    <glyph glyph-name="acutecomb" unicode="&#x301;" horiz-adv-x="0" 
d="M457 1513l-187 -266h-190l129 266h248z" />
    <glyph glyph-name="uni0302" unicode="&#x302;" horiz-adv-x="0" 
d="M543 1247l-125 174l-125 -174h-213l176 246h319l179 -246h-211z" />
    <glyph glyph-name="tildecomb" unicode="&#x303;" horiz-adv-x="0" 
d="M324 1358q-64 0 -64 -119h-180q0 142 60.5 222.5t166.5 80.5q91 0 150 -59q7 -6 25 -23.5t25 -23t20.5 -11.5t27.5 -6q63 0 63 121h181q0 -141 -61 -222t-167 -81q-93 0 -159 66l-23.5 23.5t-18.5 15.5t-23 13t-23 3z" />
    <glyph glyph-name="uni0304" unicode="&#x304;" horiz-adv-x="0" 
d="M80 1464h594v-202h-594v202z" />
    <glyph glyph-name="uni0306" unicode="&#x306;" horiz-adv-x="0" 
d="M268 1522q0 -54 38 -89.5t95 -35.5t95.5 35.5t38.5 89.5h190q0 -119 -94 -201t-230 -82q-135 0 -228 82t-93 201h188z" />
    <glyph glyph-name="uni0307" unicode="&#x307;" horiz-adv-x="0" 
d="M80 1454h319v-227h-319v227z" />
    <glyph glyph-name="uni0308" unicode="&#x308;" horiz-adv-x="0" 
d="M80 1454h319v-227h-319v227zM502 1227v227h319v-227h-319z" />
    <glyph glyph-name="uni030A" unicode="&#x30a;" horiz-adv-x="0" 
d="M291 1192q-88 0 -149.5 60t-61.5 149q0 87 62 149t149 62q86 0 147.5 -62.5t61.5 -148.5q0 -89 -61 -149t-148 -60zM217 1401q0 -29 21.5 -50.5t52.5 -21.5q29 0 49 21t20 51q0 28 -20 50t-49 22q-30 0 -52 -22t-22 -50z" />
    <glyph glyph-name="uni030B" unicode="&#x30b;" horiz-adv-x="0" 
d="M457 1513l-187 -266h-190l129 266h248zM387 1247l129 266h248l-186 -266h-191z" />
    <glyph glyph-name="uni030C" unicode="&#x30c;" horiz-adv-x="0" 
d="M543 1495h211l-179 -246h-319l-176 246h213l125 -174z" />
    <glyph glyph-name="uni0312" unicode="&#x312;" horiz-adv-x="0" 
d="M80 1503l141 324h166l-92 -324h115v-305h-330v305z" />
    <glyph glyph-name="uni0326" unicode="&#x326;" horiz-adv-x="0" 
d="M457 -123l-187 -266h-190l129 266h248z" />
    <glyph glyph-name="uni0327" unicode="&#x327;" horiz-adv-x="0" 
d="M217 -92l102 112h146l-80 -86q83 0 141 -57.5t58 -144.5q0 -89 -68.5 -151t-159.5 -62q-147 0 -276 153l121 113q44 -56 69 -74q35 -26 74 -26q35 0 57.5 20.5t22.5 52.5q0 44 -43 61.5t-94 -1.5z" />
    <glyph glyph-name="uni0328" unicode="&#x328;" horiz-adv-x="0" 
d="M342 -68q-68 -89 -68 -135q0 -29 19.5 -48t48.5 -19q50 0 123 47v-166q-81 -67 -199 -60q-78 3 -132 56t-54 127q0 113 90 200l63 66h160z" />
    <glyph glyph-name="uni0335" unicode="&#x335;" horiz-adv-x="0" 
d="M408 670h852v-172h-852v172z" />
    <glyph glyph-name="Lambda" unicode="&#x39b;" horiz-adv-x="1503" 
d="M752 1126l-387 -1126h-314l524 1454h353l524 -1454h-315z" />
    <glyph glyph-name="uni03A9" unicode="&#x3a9;" horiz-adv-x="1568" 
d="M784 1223q-179 0 -280 -128.5t-101 -349.5q0 -198 84.5 -336.5t210.5 -144.5v-264h-612v264l299 -6q-138 70 -219.5 212t-81.5 335q0 194 84.5 348.5t245 244t370.5 89.5q158 0 290.5 -52t222 -143t139 -216.5t49.5 -270.5q0 -193 -81.5 -335t-219.5 -212l299 6v-264
h-615v264q126 6 211.5 144.5t85.5 336.5q0 221 -101.5 349.5t-279.5 128.5z" />
    <glyph glyph-name="lambda" unicode="&#x3bb;" horiz-adv-x="1333" 
d="M1124 0q-126 -1 -199 66t-137 225l-143 356l-276 -647h-318l445 1016l-31 76q-31 75 -58 104t-83 29h-109v229h195q129 0 205 -68.5t137 -224.5l323 -801q31 -76 55.5 -103.5t77.5 -27.5h74v-229h-158z" />
    <glyph glyph-name="pi" unicode="&#x3c0;" horiz-adv-x="1376" 
d="M82 1085h1237v-231h-203v-492q0 -62 32.5 -96.5t92.5 -34.5h74v-231h-88q-188 0 -278.5 90.5t-90.5 271.5v492h-307v-854h-258v854h-211v231z" />
    <glyph glyph-name="uni0E3F" unicode="&#xe3f;" horiz-adv-x="1380" 
d="M152 0v1454h438v195h168v-201q459 -44 459 -397q0 -126 -81.5 -205.5t-222.5 -93.5q177 -14 271 -101t94 -239q0 -188 -134.5 -294.5t-385.5 -115.5v-188h-168v186h-438zM465 256h125v369h-125v-369zM465 854h125v344h-125v-344zM758 258q108 8 164.5 53.5t56.5 126.5
q0 170 -221 185v-365zM758 862q160 30 160 164t-160 164v-328z" />
    <glyph glyph-name="uni1E20" unicode="&#x1e20;" horiz-adv-x="1507" 
d="M1413 0h-190l-17 213q-51 -114 -168.5 -180t-269.5 -66q-203 0 -360 100t-240.5 272t-83.5 386q0 161 49.5 301t139 242t221.5 160.5t290 58.5q247 0 409.5 -135t215.5 -375l-324 -14q-30 126 -107.5 193t-199.5 67q-124 0 -209.5 -66.5t-124 -176.5t-38.5 -255
q0 -221 94.5 -357.5t277.5 -136.5q137 0 219 80t101 215h-320v232h635v-758zM487 1630v203h594v-203h-594z" />
    <glyph glyph-name="uni1E21" unicode="&#x1e21;" horiz-adv-x="1302" 
d="M551 51q-212 0 -341.5 141t-129.5 373q0 246 129 395.5t340 149.5q105 0 187.5 -50t125.5 -140v165h305v-954q0 -214 -149.5 -338.5t-392.5 -124.5q-189 0 -327.5 83.5t-186.5 223.5l315 21q22 -53 75.5 -83t127.5 -30q110 0 168.5 54.5t58.5 160.5v117
q-38 -75 -121.5 -119.5t-183.5 -44.5zM340 1262v202h594v-202h-594zM397 569q0 -140 65 -223.5t171 -83.5q107 0 170 83t65 224q1 141 -62.5 224.5t-172.5 83.5t-172.5 -83.5t-63.5 -224.5z" />
    <glyph glyph-name="Wgrave" unicode="&#x1e80;" horiz-adv-x="2029" 
d="M51 1454h326l248 -1020l252 1020h274l254 -1020l246 1020h327l-393 -1454h-334l-237 907l-236 -907h-336zM733 1882h254l129 -266h-196z" />
    <glyph glyph-name="wgrave" unicode="&#x1e81;" horiz-adv-x="1740" 
d="M995 1085l207 -727l201 727h295l-330 -1085h-297l-201 680l-200 -680h-297l-330 1085h295l201 -727l206 727h250zM590 1513h254l129 -266h-197z" />
    <glyph glyph-name="Wacute" unicode="&#x1e82;" horiz-adv-x="2029" 
d="M51 1454h326l248 -1020l252 1020h274l254 -1020l246 1020h327l-393 -1454h-334l-237 907l-236 -907h-336zM915 1616l129 266h248l-186 -266h-191z" />
    <glyph glyph-name="wacute" unicode="&#x1e83;" horiz-adv-x="1740" 
d="M995 1085l207 -727l201 727h295l-330 -1085h-297l-201 680l-200 -680h-297l-330 1085h295l201 -727l206 727h250zM772 1247l129 266h248l-186 -266h-191z" />
    <glyph glyph-name="Wdieresis" unicode="&#x1e84;" horiz-adv-x="2029" 
d="M51 1454h326l248 -1020l252 1020h274l254 -1020l246 1020h327l-393 -1454h-334l-237 907l-236 -907h-336zM641 1595v228h320v-228h-320zM1063 1595v228h319v-228h-319z" />
    <glyph glyph-name="wdieresis" unicode="&#x1e85;" horiz-adv-x="1740" 
d="M995 1085l207 -727l201 727h295l-330 -1085h-297l-201 680l-200 -680h-297l-330 1085h295l201 -727l206 727h250zM500 1227v227h319v-227h-319zM920 1227v227h319v-227h-319z" />
    <glyph glyph-name="uni1E9E" unicode="&#x1e9e;" horiz-adv-x="1519" 
d="M848 264q118 0 184 51t66 142q0 92 -72.5 143t-200.5 51l-204 -2v248l329 293h-264q-108 0 -164.5 -59.5t-56.5 -174.5v-956h-313v956q0 240 138 369t396 129h657v-264l-366 -328q201 -28 319.5 -137.5t118.5 -271.5q0 -214 -147.5 -333.5t-419.5 -119.5h-248v264h248z
" />
    <glyph glyph-name="uni1EBC" unicode="&#x1ebc;" horiz-adv-x="1273" 
d="M152 1454h1013v-264h-700v-332h676v-258h-676v-336h717v-264h-1030v1454zM299 1610q0 142 60.5 222.5t166.5 80.5q90 0 150 -60q8 -7 21 -19.5t19.5 -18t17 -13t20 -10t20.5 -2.5q64 0 64 121h180q0 -141 -60.5 -222t-166.5 -81q-95 0 -160 65l-7 7q-18 19 -27.5 27
t-24 15t-29.5 7q-64 0 -64 -119h-180z" />
    <glyph glyph-name="uni1EBD" unicode="&#x1ebd;" horiz-adv-x="1249" 
d="M80 543q0 258 152.5 412.5t404.5 154.5q233 0 382 -156t148 -434v-57h-764q6 -122 68 -190t166 -68q68 0 123.5 36t81.5 99l311 -23q-49 -158 -189 -250t-327 -92q-252 0 -404.5 155t-152.5 413zM276 1237q0 142 61 222.5t167 80.5q90 0 149 -59q6 -5 25 -23.5t25.5 -23
t20.5 -11t28 -6.5q63 0 63 121h180q0 -141 -60.5 -222t-166.5 -81q-95 0 -160 65l-7 7q-18 19 -27.5 27t-24 15t-29.5 7q-63 0 -63 -119h-181zM406 649h448q-11 117 -71 174.5t-146 57.5q-97 0 -158 -62t-73 -170z" />
    <glyph glyph-name="Ygrave" unicode="&#x1ef2;" horiz-adv-x="1423" 
d="M51 1454h344l318 -590l317 590h342l-502 -889v-565h-313v565zM430 1882h254l129 -266h-197z" />
    <glyph glyph-name="ygrave" unicode="&#x1ef3;" horiz-adv-x="1204" 
d="M43 1085h295l268 -761l262 761h293l-428 -1189q-37 -104 -110 -153.5t-191 -49.5h-196v225h137q49 0 76 16.5t45 53.5l26 67h-86zM322 1513h253l130 -266h-197z" />
    <glyph glyph-name="uni1EF8" unicode="&#x1ef8;" horiz-adv-x="1423" 
d="M51 1454h344l318 -590l317 590h342l-502 -889v-565h-313v565zM354 1608q0 142 61 222.5t167 80.5q89 0 149 -60q8 -7 21 -19.5t19.5 -18t17 -13t20 -10t20.5 -2.5q64 0 64 121h180q0 -141 -60.5 -222t-166.5 -81q-95 0 -160 65l-23.5 23.5t-18.5 15.5t-23 13t-23 3
q-63 0 -63 -118h-181z" />
    <glyph glyph-name="uni1EF9" unicode="&#x1ef9;" horiz-adv-x="1204" 
d="M43 1085h295l268 -761l262 761h293l-428 -1189q-37 -104 -110 -153.5t-191 -49.5h-196v225h137q49 0 76 16.5t45 53.5l26 67h-86zM244 1239q0 142 60.5 222.5t166.5 80.5q91 0 150 -59q7 -6 25 -23.5t25 -23t20.5 -11.5t27.5 -6q63 0 63 121h181q0 -141 -61 -222
t-167 -81q-94 0 -160 66l-23.5 23.5t-18.5 15.5t-23 13t-23 3q-63 0 -63 -119h-180z" />
    <glyph glyph-name="endash" unicode="&#x2013;" horiz-adv-x="1226" 
d="M80 723h1067v-250h-1067v250z" />
    <glyph glyph-name="emdash" unicode="&#x2014;" horiz-adv-x="1873" 
d="M80 723h1714v-250h-1714v250z" />
    <glyph glyph-name="quoteleft" unicode="&#x2018;" horiz-adv-x="497" 
d="M84 1151l141 324h166l-92 -324h115v-305h-330v305z" />
    <glyph glyph-name="quoteright" unicode="&#x2019;" horiz-adv-x="497" 
d="M414 1149l-142 -324h-166l93 324h-115v305h330v-305z" />
    <glyph glyph-name="quotesinglbase" unicode="&#x201a;" horiz-adv-x="497" 
d="M414 0l-142 -324h-166l93 324h-115v305h330v-305z" />
    <glyph glyph-name="quotedblleft" unicode="&#x201c;" horiz-adv-x="937" 
d="M84 1151l141 324h166l-92 -324h115v-305h-330v305zM524 846v305l142 324h165l-92 -324h115v-305h-330z" />
    <glyph glyph-name="quotedblright" unicode="&#x201d;" horiz-adv-x="937" 
d="M856 1149l-141 -324h-166l92 324h-115v305h330v-305zM84 1149v305h330v-305l-142 -324h-166l93 324h-115z" />
    <glyph glyph-name="quotedblbase" unicode="&#x201e;" horiz-adv-x="937" 
d="M856 0l-141 -324h-166l92 324h-115v305h330v-305zM84 0v305h330v-305l-142 -324h-166l93 324h-115z" />
    <glyph glyph-name="dagger" unicode="&#x2020;" horiz-adv-x="1185" 
d="M451 1454h286v-369h297v-229h-297v-856h-286v856h-299v229h299v369z" />
    <glyph glyph-name="daggerdbl" unicode="&#x2021;" horiz-adv-x="1193" 
d="M451 1454h286v-369h297v-229h-297v-588h305v-229h-305v-346h-286v346h-291v229h291v588h-299v229h299v369z" />
    <glyph glyph-name="bullet" unicode="&#x2022;" horiz-adv-x="686" 
d="M346 303q-116 0 -192 75t-76 189q0 115 76 189.5t192 74.5q115 0 192.5 -74.5t77.5 -189.5q0 -113 -77.5 -188.5t-192.5 -75.5z" />
    <glyph glyph-name="ellipsis" unicode="&#x2026;" horiz-adv-x="1425" 
d="M80 305h330v-305h-330v305zM547 0v305h330v-305h-330zM1016 0v305h330v-305h-330z" />
    <glyph glyph-name="perthousand" unicode="&#x2030;" horiz-adv-x="2410" 
d="M2009 0q-139 0 -231 101.5t-92 254.5t92 255t231 102q138 0 231 -102.5t93 -254.5t-93 -254t-231 -102zM80 1100q0 151 96.5 253.5t235.5 102.5t235 -102.5t96 -253.5t-96 -254t-235 -103t-235.5 103t-96.5 254zM178 -25l1061 1512h313l-1060 -1512h-314zM293 1100
q0 -86 32 -136.5t87 -50.5q57 0 88.5 50t31.5 137t-31.5 136.5t-88.5 49.5q-55 0 -87 -50t-32 -136zM979 356q0 152 96 254.5t236 102.5q139 0 235 -103t96 -254t-96 -253.5t-235 -102.5q-140 0 -236 102t-96 254zM1192 356q0 -87 31 -136.5t88 -49.5t88 49.5t31 136.5
t-31.5 137t-87.5 50t-87.5 -50t-31.5 -137zM1886 356q0 -86 33 -137t90 -51t90 51t33 137q0 87 -33 138t-90 51t-90 -51t-33 -138z" />
    <glyph glyph-name="minute" unicode="&#x2032;" horiz-adv-x="534" 
d="M457 1513l-187 -266h-190l129 266h248z" />
    <glyph glyph-name="second" unicode="&#x2033;" horiz-adv-x="843" 
d="M457 1513l-187 -266h-190l129 266h248zM389 1247l129 266h248l-186 -266h-191z" />
    <glyph glyph-name="guilsinglleft" unicode="&#x2039;" horiz-adv-x="802" 
d="M387 975h336l-348 -410l348 -409h-336l-307 362v94z" />
    <glyph glyph-name="guilsinglright" unicode="&#x203a;" horiz-adv-x="802" 
d="M416 975l307 -363v-94l-307 -362h-336l348 409l-348 410h336z" />
    <glyph glyph-name="fraction" unicode="&#x2044;" 
d="M1204 1454l-966 -1454h-213l966 1454h213z" />
    <glyph glyph-name="uni2070" unicode="&#x2070;" 
d="M614 635q-148 0 -237.5 115t-89.5 309q0 196 89.5 312t237.5 116t238 -116t90 -312q0 -194 -90 -309t-238 -115zM451 1059q0 -70 12 -123l233 375q-37 26 -82 26q-78 0 -120.5 -72.5t-42.5 -205.5zM532 811q39 -27 82 -27q78 0 121 71.5t43 203.5q0 73 -12 129z" />
    <glyph glyph-name="uni2074" unicode="&#x2074;" 
d="M807 1456v-502h82v-149h-82v-143h-166v143h-362v139l387 512h141zM475 954h166v220z" />
    <glyph glyph-name="uni2075" unicode="&#x2075;" 
d="M864 1456v-149h-319l-21 -154q45 45 125 45q110 0 186 -81t76 -202q0 -125 -85.5 -206.5t-211.5 -81.5q-114 0 -196.5 66t-91.5 169l166 6q7 -41 43 -66.5t83 -25.5q55 0 91 39t36 100q0 62 -36.5 104t-90.5 42q-80 0 -122 -74h-158l65 469h461z" />
    <glyph glyph-name="uni2076" unicode="&#x2076;" 
d="M741 1274q-21 72 -102 72q-61 0 -98.5 -57t-48.5 -152q57 73 157 73q114 0 187 -79t73 -205q0 -129 -82.5 -209t-210.5 -80q-134 0 -210 107t-76 270q0 133 33.5 237.5t106 170t175.5 65.5q94 0 166 -55t92 -146zM504 926q-1 -63 32 -101.5t87 -38.5q55 0 87.5 38.5
t32.5 101.5q0 62 -31.5 98.5t-86.5 36.5q-52 0 -86 -37t-35 -98z" />
    <glyph glyph-name="uni2077" unicode="&#x2077;" 
d="M340 1454h565v-117q-235 -283 -235 -678h-166q0 168 58 335t165 311h-387v149z" />
    <glyph glyph-name="uni2078" unicode="&#x2078;" 
d="M614 637q-134 0 -220.5 67.5t-86.5 178.5q0 76 45 131.5t127 83.5q-63 22 -98 66t-35 104q0 95 76.5 157t191.5 62q116 0 192.5 -62t76.5 -157q0 -60 -35 -104t-98 -66q82 -29 127 -85t45 -130q0 -111 -87 -178.5t-221 -67.5zM473 905q0 -54 39.5 -86.5t101.5 -32.5
t102 33t40 86q0 54 -40.5 90.5t-101.5 36.5t-101 -36.5t-40 -90.5zM512 1247q0 -44 29 -72t73 -28q45 0 74 28t29 72q0 39 -29 64.5t-74 25.5q-44 0 -73 -25t-29 -65z" />
    <glyph glyph-name="uni2079" unicode="&#x2079;" 
d="M500 850q21 -72 102 -72q59 0 98.5 55t51.5 156q-60 -76 -160 -76q-113 0 -186.5 79t-73.5 206q0 129 82.5 209t210.5 80q134 0 210 -107t76 -270q0 -215 -85.5 -344t-229.5 -129q-94 0 -167 55t-93 146zM498 1198q0 -62 31.5 -98.5t86.5 -36.5q52 0 87 37t36 98
q1 62 -32.5 100.5t-88.5 38.5t-87.5 -38t-32.5 -101z" />
    <glyph glyph-name="uni2080" unicode="&#x2080;" 
d="M614 -31q-148 0 -237.5 115t-89.5 309q0 196 89.5 312t237.5 116t238 -116t90 -312q0 -194 -90 -309t-238 -115zM451 393q0 -70 12 -123l233 375q-39 27 -82 27q-78 0 -120.5 -72.5t-42.5 -206.5zM532 145q37 -26 82 -26q78 0 121 71t43 203q0 73 -12 129z" />
    <glyph glyph-name="uni2081" unicode="&#x2081;" 
d="M416 592q92 0 141 53t49 150h131v-795h-168v481h-204v111h51z" />
    <glyph glyph-name="uni2082" unicode="&#x2082;" 
d="M332 559q13 117 93.5 189.5t192.5 72.5q113 0 188 -66t75 -169q0 -148 -183 -267l-57 -38q-117 -80 -129 -131h375v-150h-568q0 54 8.5 100.5t31.5 101t72 107.5t122 101l65 43q97 63 97 133q0 38 -26.5 62t-67.5 24q-99 0 -123 -119z" />
    <glyph glyph-name="uni2083" unicode="&#x2083;" 
d="M608 489q46 0 76.5 28t30.5 63q0 38 -29 65t-72 27q-42 0 -70.5 -19t-33.5 -49l-166 8q14 89 91.5 149t180.5 60q114 0 190.5 -61t76.5 -152q0 -61 -41.5 -111.5t-110.5 -68.5q79 -19 130.5 -80.5t51.5 -138.5q0 -101 -84.5 -171.5t-207.5 -70.5q-121 0 -208.5 69
t-93.5 169l166 6q3 -40 42.5 -67t93.5 -27t90.5 32.5t36.5 79.5q0 51 -40.5 86t-99.5 35h-53v139h53z" />
    <glyph glyph-name="uni2084" unicode="&#x2084;" 
d="M807 795v-502h82v-150h-82v-143h-166v143h-362v140l387 512h141zM475 293h166v219z" />
    <glyph glyph-name="uni2085" unicode="&#x2085;" 
d="M864 797v-150h-319l-21 -153q45 45 125 45q110 0 186 -81t76 -202q0 -125 -85.5 -207t-211.5 -82q-114 0 -196.5 66.5t-91.5 169.5l166 6q7 -41 43 -66.5t83 -25.5q55 0 91 39t36 100q0 62 -36.5 103.5t-90.5 41.5q-80 0 -122 -73h-158l65 469h461z" />
    <glyph glyph-name="uni2086" unicode="&#x2086;" 
d="M741 604q-21 72 -102 72q-61 0 -98.5 -57t-48.5 -152q58 74 157 74q113 0 186.5 -79t73.5 -206q0 -129 -82.5 -209t-210.5 -80q-134 0 -210 107t-76 270q0 133 33.5 237.5t106 170t175.5 65.5q94 0 166 -55t92 -146zM504 256q-1 -63 32 -101t87 -38q55 0 87.5 38
t32.5 101q0 62 -31.5 98.5t-86.5 36.5q-52 0 -86 -37t-35 -98z" />
    <glyph glyph-name="uni2087" unicode="&#x2087;" 
d="M340 793h565v-117q-235 -283 -235 -678h-166q0 167 58 334t165 311h-387v150z" />
    <glyph glyph-name="uni2088" unicode="&#x2088;" 
d="M614 -33q-134 0 -220.5 67.5t-86.5 178.5q0 76 45 131.5t127 83.5q-63 22 -98 66t-35 104q0 95 76.5 157t191.5 62q116 0 192.5 -62t76.5 -157q0 -60 -35 -104t-98 -66q82 -29 127 -85t45 -130q0 -111 -87 -178.5t-221 -67.5zM473 236q0 -54 39.5 -86.5t101.5 -32.5
t102 33t40 86q0 54 -40.5 90t-101.5 36t-101 -36t-40 -90zM512 578q0 -44 29 -72.5t73 -28.5t73.5 28.5t29.5 72.5q0 39 -29 64.5t-74 25.5q-44 0 -73 -25t-29 -65z" />
    <glyph glyph-name="uni2089" unicode="&#x2089;" 
d="M500 180q21 -71 102 -71q59 0 98.5 54.5t51.5 155.5q-59 -75 -160 -75q-114 0 -187 79t-73 205q0 129 82.5 209t210.5 80q134 0 210 -107t76 -270q0 -215 -85.5 -344t-229.5 -129q-94 0 -167 55t-93 146zM498 528q0 -62 31.5 -98.5t86.5 -36.5q52 0 87 37t36 98
q1 62 -33 101t-88 39q-55 0 -87.5 -38.5t-32.5 -101.5z" />
    <glyph glyph-name="uni20AA" unicode="&#x20aa;" horiz-adv-x="1783" 
d="M909 1454q141 0 224.5 -83t83.5 -224v-830h-252v840q0 57 -33 90t-90 33h-430v-1280h-260v1454h757zM567 0v1137h244v-963h438q57 0 90 33t33 90v1157h260v-1147q0 -141 -83 -224t-224 -83h-758z" />
    <glyph glyph-name="Euro" unicode="&#x20ac;" horiz-adv-x="1513" 
d="M1440 494q-46 -244 -194.5 -385.5t-368.5 -141.5q-219 0 -379.5 138.5t-221.5 367.5h-172v168h146q-4 54 -4 84q0 43 2 63h-144v168h168q57 239 218.5 385t386.5 146q213 0 360 -135.5t197 -368.5l-299 -16q-26 118 -97.5 187t-167.5 69q-109 0 -184.5 -71.5
t-112.5 -195.5h312l-23 -168h-317q-2 -20 -2 -63q0 -30 4 -84h297l-23 -168h-241q39 -114 113 -178t177 -64q102 0 173.5 76t93.5 203z" />
    <glyph glyph-name="uni20B4" unicode="&#x20b4;" horiz-adv-x="1462" 
d="M104 479v168h1254v-168h-854q-26 -36 -29 -76q-1 -73 62 -119t165 -46q86 0 153 37t103 102l340 -19q-51 -179 -207 -281t-380 -102q-249 0 -401 118t-152 310q0 41 14 76h-68zM104 782v168h824q45 39 45 99q4 78 -61 128t-169 50q-76 0 -137 -44t-98 -124l-315 28
q51 186 192.5 293t337.5 107q262 0 415.5 -117t153.5 -317q0 -54 -22 -103h88v-168h-1254z" />
    <glyph glyph-name="uni20B9" unicode="&#x20b9;" horiz-adv-x="1452" 
d="M709 0l-557 502v246h466q204 0 244 137h-710v168h712q-39 137 -246 137h-466v264h1198v-168h-263q88 -100 105 -233h158v-168h-162q-31 -179 -176.5 -281t-374.5 -102h-107l560 -502h-381z" />
    <glyph glyph-name="uni20BD" unicode="&#x20bd;" horiz-adv-x="1497" 
d="M854 1454q262 0 411.5 -127t149.5 -348q0 -223 -149.5 -350t-411.5 -127h-268v-125h180v-168h-180v-209h-314v209h-188v168h188v1077h582zM586 766h252q123 0 188.5 54t65.5 159q0 104 -65 157.5t-189 53.5h-252v-424z" />
    <glyph glyph-name="uni2107" unicode="&#x2107;" horiz-adv-x="1267" 
d="M1174 199q-80 -103 -230.5 -167.5t-316.5 -64.5q-237 0 -385 123.5t-148 317.5q0 140 81 236.5t231 133.5q-126 37 -194.5 121t-68.5 205q0 171 133 277t351 106q144 0 278 -57.5t230 -159.5l-162 -197q-63 83 -155 135t-177 52q-107 0 -171 -49.5t-64 -131.5
q0 -68 35.5 -117t87.5 -70t112 -20l94 2v-221l-94 2q-131 3 -208 -58t-77 -169q0 -105 77.5 -169t207.5 -64q98 0 201 55t182 151z" />
    <glyph glyph-name="uni2116" unicode="&#x2116;" horiz-adv-x="2271" 
d="M152 1454h344l571 -995v995h313v-1454h-356l-559 961v-961h-313v1454zM1473 682q0 160 88.5 258t234.5 98t235 -98t89 -258q0 -161 -89 -258.5t-235 -97.5t-234.5 97.5t-88.5 258.5zM1518 0v199h559v-199h-559zM1675 682q0 -90 32 -139t89 -49q59 0 92 49t33 139
q0 89 -33 137.5t-92 48.5q-57 0 -89 -48.5t-32 -137.5z" />
    <glyph glyph-name="uni2117" unicode="&#x2117;" horiz-adv-x="1200" 
d="M623 1237q102 0 161.5 -46t59.5 -124q0 -82 -57 -126t-162 -44h-64v-192h-131v532h193zM84 971q0 140 68.5 259t187.5 188t260 69t260 -69t187.5 -188t68.5 -259q0 -106 -40.5 -202t-109.5 -166t-164.5 -111t-201.5 -41t-201.5 41t-164.5 111t-109.5 166t-40.5 202z
M223 971q0 -156 111.5 -266.5t265.5 -110.5t264.5 110.5t110.5 266.5q0 154 -110.5 264.5t-264.5 110.5t-265.5 -110.5t-111.5 -264.5zM559 1001h64q41 0 64.5 16.5t23.5 47.5q0 57 -88 57h-64v-121z" />
    <glyph glyph-name="trademark" unicode="&#x2122;" horiz-adv-x="1810" 
d="M152 1454h577v-151h-201v-568h-176v568h-200v151zM821 735v719h230l190 -518l191 518h227v-719h-176v414l-156 -414h-172l-160 424v-424h-174z" />
    <glyph glyph-name="uni2153" unicode="&#x2153;" horiz-adv-x="1953" 
d="M1540 1454l-967 -1454h-213l967 1454h213zM82 1143v110h51q92 0 141.5 53t49.5 150h131v-794h-168v481h-205zM1276 205l166 6q3 -40 42 -67t93 -27t90.5 32.5t36.5 79.5q0 51 -40 86t-99 35h-54v139h54q45 0 75.5 28t30.5 63q0 39 -29 65.5t-71 26.5t-71 -19t-34 -49
l-166 8q13 89 91.5 149t181.5 60q114 0 190 -61t76 -152q0 -61 -41 -111.5t-110 -68.5q79 -19 130.5 -80.5t51.5 -138.5q0 -101 -85 -171.5t-208 -70.5q-121 0 -208 69t-93 169z" />
    <glyph glyph-name="uni2154" unicode="&#x2154;" horiz-adv-x="1947" 
d="M1534 1454l-967 -1454h-213l967 1454h213zM84 666q0 54 8.5 100t31.5 100.5t71.5 107.5t121.5 101l66 43q96 62 96 133q0 38 -26.5 62t-67.5 24q-99 0 -123 -118l-166 6q13 117 94 189.5t193 72.5q113 0 187.5 -66t74.5 -170q0 -148 -182 -266l-57 -39q-57 -39 -90 -70
t-40 -61h375v-149h-567zM1270 205l166 6q3 -40 42 -67t93 -27t90.5 32.5t36.5 79.5q0 51 -40 86t-99 35h-54v139h54q45 0 75.5 28t30.5 63q0 39 -29 65.5t-71 26.5t-71 -19t-34 -49l-166 8q13 89 91.5 149t181.5 60q114 0 190 -61t76 -152q0 -61 -41.5 -111.5t-110.5 -68.5
q79 -19 131 -80.5t52 -138.5q0 -101 -85 -171.5t-208 -70.5q-121 0 -208 69t-93 169z" />
    <glyph glyph-name="uni2155" unicode="&#x2155;" horiz-adv-x="1931" 
d="M1540 1454l-967 -1454h-213l967 1454h213zM82 1143v110h51q92 0 141.5 53t49.5 150h131v-794h-168v481h-205zM1262 203l165 6q7 -41 43.5 -66.5t83.5 -25.5q55 0 91 39t36 100q0 62 -36.5 103.5t-90.5 41.5q-80 0 -122 -73h-158l65 469h461v-150h-319l-21 -153
q45 45 125 45q110 0 186 -81t76 -202q0 -125 -85.5 -207t-211.5 -82q-114 0 -196.5 66.5t-91.5 169.5z" />
    <glyph glyph-name="oneeighth" unicode="&#x215b;" horiz-adv-x="1949" 
d="M1540 1454l-967 -1454h-213l967 1454h213zM82 1143v110h51q92 0 141.5 53t49.5 150h131v-794h-168v481h-205zM1251 213q0 76 45 131.5t127 83.5q-63 22 -98 66t-35 104q0 95 77 157t192 62q116 0 192 -62t76 -157q0 -60 -35 -104t-98 -66q82 -29 127 -85t45 -130
q0 -111 -86.5 -178.5t-220.5 -67.5t-221 67.5t-87 178.5zM1417 236q0 -53 40 -86t102 -33t101.5 32.5t39.5 86.5t-40 90t-101 36t-101.5 -36t-40.5 -90zM1456 578q0 -44 29.5 -72.5t73.5 -28.5t73 28.5t29 72.5q0 40 -29 65t-73 25q-45 0 -74 -25.5t-29 -64.5z" />
    <glyph glyph-name="threeeighths" unicode="&#x215c;" horiz-adv-x="1992" 
d="M1583 1454l-967 -1454h-213l967 1454h213zM84 870l166 7q3 -40 42 -67.5t93 -27.5t90.5 33t36.5 80q0 51 -40 86t-99 35h-54v139h54q46 0 76 27.5t30 62.5q0 39 -29 65.5t-71 26.5t-71 -19t-34 -48l-165 8q14 89 91.5 149t180.5 60q114 0 190 -61t76 -152
q0 -61 -41 -111.5t-110 -68.5q79 -19 130.5 -81t51.5 -139q0 -101 -85 -171t-208 -70q-121 0 -208 68.5t-93 168.5zM1294 213q0 76 45 131.5t127 83.5q-63 22 -98 66t-35 104q0 95 77 157t192 62q116 0 192 -62t76 -157q0 -60 -35 -104t-98 -66q82 -29 127 -85t45 -130
q0 -111 -86.5 -178.5t-220.5 -67.5t-221 67.5t-87 178.5zM1460 236q0 -53 40 -86t102 -33t101.5 32.5t39.5 86.5t-40 90t-101 36t-101.5 -36t-40.5 -90zM1499 578q0 -44 29.5 -72.5t73.5 -28.5t73 28.5t29 72.5q0 40 -29 65t-73 25q-45 0 -74 -25.5t-29 -64.5z" />
    <glyph glyph-name="fiveeighths" unicode="&#x215d;" horiz-adv-x="1984" 
d="M1575 1454l-967 -1454h-213l967 1454h213zM82 862l166 6q7 -41 43.5 -66.5t83.5 -25.5q55 0 91 39t36 100q0 62 -36.5 104t-90.5 42q-81 0 -123 -74h-158l66 469h461v-149h-320l-20 -154q45 45 125 45q110 0 186 -81t76 -202q0 -125 -85.5 -206.5t-211.5 -81.5
q-114 0 -197 66t-92 169zM1286 213q0 76 45 131.5t127 83.5q-63 22 -98 66t-35 104q0 95 76.5 157t191.5 62q116 0 192.5 -62t76.5 -157q0 -60 -35 -104t-98 -66q82 -29 127 -85t45 -130q0 -111 -87 -178.5t-221 -67.5t-220.5 67.5t-86.5 178.5zM1452 236q0 -54 39.5 -86.5
t101.5 -32.5t102 33t40 86q0 54 -40.5 90t-101.5 36t-101 -36t-40 -90zM1491 578q0 -44 29 -72.5t73 -28.5t73.5 28.5t29.5 72.5q0 39 -29 64.5t-74 25.5q-44 0 -73 -25t-29 -65z" />
    <glyph glyph-name="seveneighths" unicode="&#x215e;" horiz-adv-x="2457" 
d="M1819 1454l-967 -1454h-213l967 1454h213zM340 1305v149h565v-117q-235 -283 -235 -678h-166q0 168 58 335t165 311h-387zM1530 213q0 76 45 131.5t127 83.5q-63 22 -98 66t-35 104q0 95 76.5 157t191.5 62q116 0 192 -62t76 -157q0 -60 -35 -104t-98 -66q82 -29 127 -85
t45 -130q0 -111 -86.5 -178.5t-220.5 -67.5t-220.5 67.5t-86.5 178.5zM1696 236q0 -54 39.5 -86.5t101.5 -32.5t101.5 32.5t39.5 86.5t-40 90t-101 36t-101 -36t-40 -90zM1735 578q0 -44 29 -72.5t73 -28.5t73 28.5t29 72.5q0 40 -29 65t-73 25t-73 -25t-29 -65z" />
    <glyph glyph-name="arrowleft" unicode="&#x2190;" horiz-adv-x="1622" 
d="M84 723l635 637h315l-487 -488h991v-299h-987l485 -487h-315z" />
    <glyph glyph-name="arrowup" unicode="&#x2191;" horiz-adv-x="1441" 
d="M721 1454l637 -637v-315l-488 485v-987h-299v991l-487 -487v315z" />
    <glyph glyph-name="arrowright" unicode="&#x2192;" horiz-adv-x="1622" 
d="M1538 723l-637 -637h-315l485 487h-987v299h991l-487 488h315z" />
    <glyph glyph-name="arrowdown" unicode="&#x2193;" horiz-adv-x="1441" 
d="M721 0l-637 635v315l487 -487v991h299v-987l488 485v-315z" />
    <glyph glyph-name="arrowboth" unicode="&#x2194;" horiz-adv-x="2215" 
d="M2132 723l-637 -637h-315l485 487h-1114l485 -487h-315l-637 637l635 637h315l-487 -488h1122l-487 488h315z" />
    <glyph glyph-name="arrowupdn" unicode="&#x2195;" horiz-adv-x="1441" 
d="M721 -399l-637 637v315l487 -485v1114l-487 -486v316l637 637l637 -635v-316l-488 488v-1123l488 488v-315z" />
    <glyph glyph-name="uni2196" unicode="&#x2196;" horiz-adv-x="1304" 
d="M84 1456h899l223 -221h-690l703 -703l-213 -210l-697 696l-2 -686l-223 223v901z" />
    <glyph glyph-name="uni2197" unicode="&#x2197;" horiz-adv-x="1304" 
d="M1221 1456v-901l-224 -223l-2 686l-696 -696l-213 210l702 703h-690l224 221h899z" />
    <glyph glyph-name="uni2198" unicode="&#x2198;" horiz-adv-x="1306" 
d="M1221 4h-902l-223 223h688l-698 699l213 211l700 -701v690l224 -223z" />
    <glyph glyph-name="uni2199" unicode="&#x2199;" horiz-adv-x="1306" 
d="M86 4l-2 899l223 223v-690l701 701l211 -211l-699 -699h688l-221 -223h-901z" />
    <glyph glyph-name="uni219D" unicode="&#x219d;" horiz-adv-x="1323" 
d="M84 594q13 74 47.5 137t82.5 103.5t102 63.5t110.5 21.5t103.5 -28.5q32 -19 54.5 -40.5t35.5 -48t19 -44.5t14 -49q4 -27 6.5 -40t9.5 -33t18 -33t28 -23q37 -23 80.5 3.5t89.5 100.5l-160 94l469 219l45 -522l-166 98q-87 -140 -204 -194.5t-230 4.5q-99 57 -127 174
q-2 11 -7 36.5t-7.5 35t-8.5 26t-15 26t-23 17.5q-39 22 -83 -6.5t-65 -97.5h-219z" />
    <glyph glyph-name="uni21A9" unicode="&#x21a9;" horiz-adv-x="1347" 
d="M786 471h-305l230 -231h-283l-344 344l342 344h283l-232 -232h309q104 0 178 69t74 167t-73.5 166.5t-178.5 68.5h-604v226h604q132 0 242 -61t173 -167t63 -233t-63 -233t-173 -167t-242 -61z" />
    <glyph glyph-name="uni21AA" unicode="&#x21aa;" horiz-adv-x="1347" 
d="M561 471q-132 0 -241.5 61t-172.5 167t-63 233t63 233t172.5 167t241.5 61h604v-226h-604q-105 0 -178.5 -68.5t-73.5 -166.5t74 -167t178 -69h309l-231 232h283l342 -344l-344 -344h-283l229 231h-305z" />
    <glyph glyph-name="uni21B0" unicode="&#x21b0;" horiz-adv-x="1349" 
d="M84 911l467 392v-277h715v-1026h-230v797h-483v-277z" />
    <glyph glyph-name="uni21B1" unicode="&#x21b1;" horiz-adv-x="1349" 
d="M1266 911l-469 -391v277h-484v-797h-229v1026h715v277z" />
    <glyph glyph-name="uni21B3" unicode="&#x21b3;" horiz-adv-x="1349" 
d="M1266 543l-467 -391v276h-715v1026h229v-797h484v277z" />
    <glyph glyph-name="uni21B4" unicode="&#x21b4;" horiz-adv-x="1349" 
d="M897 0l-369 442h256v787h-700v225h926v-1012h256z" />
    <glyph glyph-name="carriagereturn" unicode="&#x21b5;" horiz-adv-x="1349" 
d="M84 543l469 391v-277h483v797h230v-1026h-715v-276z" />
    <glyph glyph-name="uni21E4" unicode="&#x21e4;" horiz-adv-x="1359" 
d="M326 719l440 368v-256h510v-225h-508v-256zM84 319v799h180v-799h-180z" />
    <glyph glyph-name="uni21E5" unicode="&#x21e5;" horiz-adv-x="1359" 
d="M1034 719l-442 -369v256h-508v225h510v256zM1096 319v799h180v-799h-180z" />
    <glyph glyph-name="uni21E7" unicode="&#x21e7;" horiz-adv-x="1832" 
d="M735 829h-200l385 383l380 -383h-196v-604h-369v604zM51 639h459v-639h819v639h455l-864 864z" />
    <glyph glyph-name="partialdiff" unicode="&#x2202;" horiz-adv-x="1267" 
d="M643 971q101 -11 181 -64.5t120 -138.5q-5 229 -161 382t-412 179l86 223q133 -12 244.5 -53t190 -101.5t138 -139t92.5 -166.5t50 -183.5t14 -189.5t-18.5 -185t-45 -170t-68.5 -144.5t-85 -108.5q-87 -77 -176.5 -108.5t-210.5 -27.5q-235 11 -377.5 162.5
t-122.5 372.5q19 228 173 354.5t388 106.5zM399 496q-10 -125 41.5 -201.5t149.5 -85.5q109 -9 184 82.5t82 243.5q-10 87 -69.5 139.5t-145.5 60.5q-98 8 -165.5 -58.5t-76.5 -180.5z" />
    <glyph glyph-name="uni2206" unicode="&#x2206;" horiz-adv-x="1359" 
d="M51 217l488 1237h284l488 -1235v-219h-1260v217zM281 217h800l-401 1010z" />
    <glyph glyph-name="product" unicode="&#x220f;" horiz-adv-x="1460" 
d="M1405 1454v-256h-217v-1505h-305v1505h-297v-1505h-305v1505h-226v256h1350z" />
    <glyph glyph-name="summation" unicode="&#x2211;" horiz-adv-x="1140" 
d="M57 1454h1026v-264h-716l311 -463l-311 -463h716v-264h-1026v262l314 465l-314 465v262z" />
    <glyph glyph-name="minus" unicode="&#x2212;" horiz-adv-x="1134" 
d="M80 713h975v-252h-975v252z" />
    <glyph glyph-name="radical" unicode="&#x221a;" horiz-adv-x="1423" 
d="M1378 1454v-252h-409l-291 -1509h-428l-207 995h293l127 -614l264 1380h651z" />
    <glyph glyph-name="infinity" unicode="&#x221e;" horiz-adv-x="1769" 
d="M778 555q-39 71 -100.5 111.5t-126.5 40.5q-67 0 -110.5 -43.5t-43.5 -108.5t43.5 -108.5t110.5 -43.5q65 0 127.5 40.5t99.5 111.5zM80 555q0 163 111.5 272t277.5 109q128 0 237 -58t181 -165q70 108 179.5 165.5t240.5 57.5q163 0 273 -109t110 -272t-110 -272
t-273 -109q-132 0 -243 56.5t-177 164.5q-68 -107 -178 -164t-240 -57q-166 0 -277.5 109t-111.5 272zM993 555q36 -72 99.5 -113t130.5 -39q65 0 107 44t42 108t-42 107.5t-107 44.5q-66 0 -128.5 -40t-101.5 -112z" />
    <glyph glyph-name="integral" unicode="&#x222b;" horiz-adv-x="925" 
d="M27 -305l24 252l90 -4q48 -2 78.5 27t36.5 83l123 1108q15 137 106 216.5t230 76.5l184 -2l-29 -254l-79 4q-54 4 -86.5 -25.5t-38.5 -84.5l-125 -1106q-15 -137 -105 -216.5t-229 -76.5z" />
    <glyph glyph-name="approxequal" unicode="&#x2248;" horiz-adv-x="1067" 
d="M80 635q0 165 76.5 262.5t210.5 97.5q113 0 198 -92q3 -3 16.5 -18t16.5 -18.5t14.5 -14t17 -13.5t15.5 -9t19 -7.5t20 -1.5q84 0 84 162h219q0 -165 -76 -262.5t-209 -97.5q-66 0 -114 25t-92 73q-25 28 -37.5 41t-33 24t-42.5 11q-84 0 -84 -162h-219zM80 188
q0 166 76.5 263.5t210.5 97.5q106 0 186 -74q8 -9 25.5 -30t25.5 -29t22 -20t28 -16.5t30 -4.5q84 0 84 162h219q0 -164 -76.5 -262.5t-208.5 -98.5q-67 0 -113.5 27t-96.5 78q-31 36 -55 52.5t-54 16.5q-84 0 -84 -162h-219z" />
    <glyph glyph-name="notequal" unicode="&#x2260;" horiz-adv-x="1134" 
d="M604 1104h256l-43 -143h238v-252h-314l-65 -217h379v-252h-455l-59 -199h-256l59 199h-264v252h340l65 217h-405v252h481z" />
    <glyph glyph-name="lessequal" unicode="&#x2264;" horiz-adv-x="1134" 
d="M1055 252v-252h-975v252h975zM80 614v328l975 250v-258l-649 -156l649 -155v-258z" />
    <glyph glyph-name="greaterequal" unicode="&#x2265;" horiz-adv-x="1134" 
d="M80 252h975v-252h-975v252zM80 365v258l649 155l-649 156v258l975 -250v-328z" />
    <glyph glyph-name="uni23CE" unicode="&#x23ce;" horiz-adv-x="1845" 
d="M702 494v-205l-327 329l327 328v-203h590v494h252v-743h-842zM84 618l809 -813v471h868v1178h-684v-493h-184v466z" />
    <glyph glyph-name="uni240B" unicode="&#x240b;" 
d="M1122 821v-121h-186v-555h-121v555h-186v121h493zM98 1290h127l144 -487l143 487h127l-207 -676h-127z" />
    <glyph glyph-name="uni240C" unicode="&#x240c;" 
d="M670 821h428v-121h-297v-170h278v-116h-278v-269h-131v676zM154 614v676h426v-121h-295v-170h276v-116h-276v-269h-131z" />
    <glyph glyph-name="uni2460" unicode="&#x2460;" horiz-adv-x="1730" 
d="M864 -55q-160 0 -305 62.5t-250 167.5t-167 251t-62 307q0 159 62 304.5t167 250.5t250 167.5t305 62.5q161 0 306.5 -62.5t251 -167.5t167.5 -250.5t62 -304.5q0 -161 -62 -307t-167.5 -251t-251 -167.5t-306.5 -62.5zM256 733q0 -167 81 -308t221 -222.5t306 -81.5
q125 0 238.5 48t195 130t129.5 195.5t48 238.5q0 165 -81 305t-222 221.5t-308 81.5q-166 0 -306 -81.5t-221 -221.5t-81 -305zM610 811v111h52q92 0 141 52.5t49 149.5h131v-794h-168v481h-205z" />
    <glyph glyph-name="uni2461" unicode="&#x2461;" horiz-adv-x="1730" 
d="M864 -55q-160 0 -305 62.5t-250 167.5t-167 251t-62 307q0 159 62 304.5t167 250.5t250 167.5t305 62.5q161 0 306.5 -62.5t251 -167.5t167.5 -250.5t62 -304.5q0 -161 -62 -307t-167.5 -251t-251 -167.5t-306.5 -62.5zM256 733q0 -167 81 -308t221 -222.5t306 -81.5
q125 0 238.5 48t195 130t129.5 195.5t48 238.5q0 165 -81 305t-222 221.5t-308 81.5q-166 0 -306 -81.5t-221 -221.5t-81 -305zM582 328q0 54 8.5 100t31.5 100.5t71.5 107.5t121.5 101l66 43q96 62 96 133q0 38 -26.5 62t-67.5 24q-99 0 -123 -118l-166 6q13 117 94 189.5
t193 72.5q113 0 187.5 -66t74.5 -170q0 -148 -182 -266l-58 -39q-117 -80 -129 -131h375v-149h-567z" />
    <glyph glyph-name="uni2462" unicode="&#x2462;" horiz-adv-x="1730" 
d="M864 -55q-160 0 -305 62.5t-250 167.5t-167 251t-62 307q0 159 62 304.5t167 250.5t250 167.5t305 62.5q161 0 306.5 -62.5t251 -167.5t167.5 -250.5t62 -304.5q0 -161 -62 -307t-167.5 -251t-251 -167.5t-306.5 -62.5zM256 733q0 -167 81 -308t221 -222.5t306 -81.5
q125 0 238.5 48t195 130t129.5 195.5t48 238.5q0 165 -81 305t-222 221.5t-308 81.5q-166 0 -306 -81.5t-221 -221.5t-81 -305zM569 541l166 6q3 -40 42 -67t93 -27t90.5 32.5t36.5 79.5q0 51 -40 86t-99 35h-53v139h53q46 0 76.5 27.5t30.5 62.5q0 39 -29.5 66t-71.5 27
t-70.5 -19t-33.5 -49l-166 8q14 89 91.5 149t180.5 60q114 0 190.5 -61t76.5 -152q0 -61 -41.5 -111.5t-110.5 -68.5q79 -19 130.5 -80.5t51.5 -138.5q0 -101 -85 -171.5t-208 -70.5q-121 0 -208 69t-93 169z" />
    <glyph glyph-name="uni2463" unicode="&#x2463;" horiz-adv-x="1730" 
d="M864 -55q-160 0 -305 62.5t-250 167.5t-167 251t-62 307q0 159 62 304.5t167 250.5t250 167.5t305 62.5q161 0 306.5 -62.5t251 -167.5t167.5 -250.5t62 -304.5q0 -161 -62 -307t-167.5 -251t-251 -167.5t-306.5 -62.5zM256 733q0 -167 81 -308t221 -222.5t306 -81.5
q125 0 238.5 48t195 130t129.5 195.5t48 238.5q0 165 -81 305t-222 221.5t-308 81.5q-166 0 -306 -81.5t-221 -221.5t-81 -305zM518 473v139l387 512h142v-501h81v-150h-81v-143h-166v143h-363zM715 623h166v219z" />
    <glyph glyph-name="uni2464" unicode="&#x2464;" horiz-adv-x="1730" 
d="M864 -55q-160 0 -305 62.5t-250 167.5t-167 251t-62 307q0 159 62 304.5t167 250.5t250 167.5t305 62.5q161 0 306.5 -62.5t251 -167.5t167.5 -250.5t62 -304.5q0 -161 -62 -307t-167.5 -251t-251 -167.5t-306.5 -62.5zM256 733q0 -167 81 -308t221 -222.5t306 -81.5
q125 0 238.5 48t195 130t129.5 195.5t48 238.5q0 165 -81 305t-222 221.5t-308 81.5q-166 0 -306 -81.5t-221 -221.5t-81 -305zM573 532l166 7q7 -41 44 -67t83 -26q54 0 90.5 39.5t36.5 100.5q0 62 -36.5 103.5t-90.5 41.5q-81 0 -123 -74h-157l65 469h461v-149h-319
l-21 -154q45 45 125 45q110 0 186 -81t76 -201q0 -125 -85.5 -207t-211.5 -82q-114 0 -197 66t-92 169z" />
    <glyph glyph-name="uni2465" unicode="&#x2465;" horiz-adv-x="1730" 
d="M864 -55q-160 0 -305 62.5t-250 167.5t-167 251t-62 307q0 159 62 304.5t167 250.5t250 167.5t305 62.5q161 0 306.5 -62.5t251 -167.5t167.5 -250.5t62 -304.5q0 -161 -62 -307t-167.5 -251t-251 -167.5t-306.5 -62.5zM256 733q0 -167 81 -308t221 -222.5t306 -81.5
q125 0 238.5 48t195 130t129.5 195.5t48 238.5q0 165 -81 305t-222 221.5t-308 81.5q-166 0 -306 -81.5t-221 -221.5t-81 -305zM573 680q0 133 33.5 237.5t106.5 170t176 65.5q94 0 166 -55t92 -146l-162 -12q-21 72 -102 72q-61 0 -99 -57t-49 -152q58 74 158 74
q113 0 186.5 -79t73.5 -206q0 -129 -82.5 -209t-210.5 -80q-134 0 -210.5 107t-76.5 270zM748 592q-1 -63 31.5 -101t86.5 -38q55 0 88 38t33 101q0 62 -32 98.5t-87 36.5q-52 0 -85.5 -37t-34.5 -98z" />
    <glyph glyph-name="uni2466" unicode="&#x2466;" horiz-adv-x="1730" 
d="M864 -55q-160 0 -305 62.5t-250 167.5t-167 251t-62 307q0 159 62 304.5t167 250.5t250 167.5t305 62.5q161 0 306.5 -62.5t251 -167.5t167.5 -250.5t62 -304.5q0 -161 -62 -307t-167.5 -251t-251 -167.5t-306.5 -62.5zM256 733q0 -167 81 -308t221 -222.5t306 -81.5
q125 0 238.5 48t195 130t129.5 195.5t48 238.5q0 165 -81 305t-222 221.5t-308 81.5q-166 0 -306 -81.5t-221 -221.5t-81 -305zM582 975v149h565v-116q-236 -284 -236 -678h-166q0 167 58.5 334t165.5 311h-387z" />
    <glyph glyph-name="uni2467" unicode="&#x2467;" horiz-adv-x="1730" 
d="M864 -55q-160 0 -305 62.5t-250 167.5t-167 251t-62 307q0 159 62 304.5t167 250.5t250 167.5t305 62.5q161 0 306.5 -62.5t251 -167.5t167.5 -250.5t62 -304.5q0 -161 -62 -307t-167.5 -251t-251 -167.5t-306.5 -62.5zM256 733q0 -167 81 -308t221 -222.5t306 -81.5
q125 0 238.5 48t195 130t129.5 195.5t48 238.5q0 165 -81 305t-222 221.5t-308 81.5q-166 0 -306 -81.5t-221 -221.5t-81 -305zM557 549q0 76 45 131.5t127 83.5q-63 22 -98 66t-35 104q0 95 76.5 157t191.5 62q116 0 192.5 -62t76.5 -157q0 -60 -35.5 -104t-98.5 -66
q82 -29 127 -85t45 -130q0 -111 -86.5 -178.5t-220.5 -67.5t-220.5 67.5t-86.5 178.5zM723 571q0 -53 39.5 -85.5t101.5 -32.5t102 32.5t40 85.5q0 54 -40.5 90.5t-101.5 36.5t-101 -36.5t-40 -90.5zM762 913q0 -44 29 -72t73 -28q45 0 74 28t29 72q0 40 -29.5 65.5
t-73.5 25.5t-73 -25.5t-29 -65.5z" />
    <glyph glyph-name="uni2468" unicode="&#x2468;" horiz-adv-x="1730" 
d="M864 -55q-160 0 -305 62.5t-250 167.5t-167 251t-62 307q0 159 62 304.5t167 250.5t250 167.5t305 62.5q161 0 306.5 -62.5t251 -167.5t167.5 -250.5t62 -304.5q0 -161 -62 -307t-167.5 -251t-251 -167.5t-306.5 -62.5zM256 733q0 -167 81 -308t221 -222.5t306 -81.5
q125 0 238.5 48t195 130t129.5 195.5t48 238.5q0 165 -81 305t-222 221.5t-308 81.5q-166 0 -306 -81.5t-221 -221.5t-81 -305zM575 864q0 129 82.5 209t210.5 80q134 0 210.5 -107t76.5 -270q0 -215 -85.5 -344t-229.5 -129q-94 0 -167 55t-93 146l163 12q21 -72 103 -72
q59 0 98 55t51 156q-59 -75 -159 -75q-114 0 -187.5 79t-73.5 205zM741 864q0 -62 32 -98.5t87 -36.5q52 0 87 37t36 98q1 62 -33 101t-88 39q-55 0 -88 -38.5t-33 -101.5z" />
    <glyph glyph-name="uni24EA" unicode="&#x24ea;" horiz-adv-x="1730" 
d="M864 -55q-160 0 -305 62.5t-250 167.5t-167 251t-62 307q0 159 62 304.5t167 250.5t250 167.5t305 62.5q161 0 306.5 -62.5t251 -167.5t167.5 -250.5t62 -304.5q0 -161 -62 -307t-167.5 -251t-251 -167.5t-306.5 -62.5zM256 733q0 -167 81 -308t221 -222.5t306 -81.5
q125 0 238.5 48t195 130t129.5 195.5t48 238.5q0 165 -81 305t-222 221.5t-308 81.5q-166 0 -306 -81.5t-221 -221.5t-81 -305zM537 727q0 196 89.5 312t237.5 116t238 -116t90 -312q0 -194 -90 -309t-238 -115t-237.5 115t-89.5 309zM700 727q0 -66 13 -123l233 375
q-39 27 -82 27q-78 0 -121 -73t-43 -206zM782 479q37 -26 82 -26q78 0 121 71t43 203q0 73 -12 129z" />
    <glyph glyph-name="uni24FF" unicode="&#x24ff;" horiz-adv-x="1671" 
d="M840 303q-148 0 -238 115t-90 309q0 196 90 312t238 116t237.5 -116t89.5 -312q0 -194 -89.5 -309t-237.5 -115zM80 733q0 -155 60 -295.5t161 -241.5t241 -161t294 -60t294 60t241 161t160.5 241.5t59.5 295.5q0 153 -59.5 292.5t-160.5 240.5t-241 161t-294 60
t-294 -60t-241 -161t-161 -240.5t-60 -292.5zM676 727q0 -71 12 -123l234 375q-39 27 -82 27q-78 0 -121 -73t-43 -206zM758 479q37 -26 82 -26q78 0 121 71t43 203q0 69 -13 129z" />
    <glyph glyph-name="triagup" unicode="&#x25b2;" horiz-adv-x="1779" 
d="M889 1454l-838 -1454h1678z" />
    <glyph glyph-name="uni25B3" unicode="&#x25b3;" horiz-adv-x="1779" 
d="M453 254l434 778l438 -778h-872zM51 0h1678l-840 1454z" />
    <glyph glyph-name="uni25B6" unicode="&#x25b6;" horiz-adv-x="1656" 
d="M1606 729l-1454 -731v1460z" />
    <glyph glyph-name="uni25B7" unicode="&#x25b7;" horiz-adv-x="1656" 
d="M1606 729l-1454 -731v1460zM369 348l753 381l-753 379v-760z" />
    <glyph glyph-name="triagdn" unicode="&#x25bc;" horiz-adv-x="1779" 
d="M889 0l840 1454h-1678z" />
    <glyph glyph-name="uni25BD" unicode="&#x25bd;" horiz-adv-x="1779" 
d="M453 1200h872l-438 -778zM51 1454l838 -1454l840 1454h-1678z" />
    <glyph glyph-name="uni25C0" unicode="&#x25c0;" horiz-adv-x="1656" 
d="M51 729l1454 729v-1460z" />
    <glyph glyph-name="uni25C1" unicode="&#x25c1;" horiz-adv-x="1656" 
d="M51 729l1454 729v-1460zM535 729l753 -381v760z" />
    <glyph glyph-name="lozenge" unicode="&#x25ca;" horiz-adv-x="1214" 
d="M430 1319h354l346 -660l-346 -659h-354l-346 659zM379 659l229 -434l230 434l-230 435z" />
    <glyph glyph-name="circle" unicode="&#x25cb;" horiz-adv-x="1712" 
d="M856 -25q-161 0 -304 57t-246 156t-162.5 239.5t-59.5 301.5q0 216 101.5 390t278 271t392.5 97t392.5 -97t278 -271t101.5 -390q0 -161 -59.5 -301.5t-162.5 -239.5t-246 -156t-304 -57zM334 729q0 -220 150 -365t372 -145t372 145t150 365q0 147 -68.5 265t-188 183.5
t-265.5 65.5t-265.5 -65.5t-188 -183.5t-68.5 -265z" />
    <glyph glyph-name="uni25CC" unicode="&#x25cc;" horiz-adv-x="1712" 
d="M1276 360q48 52 72 91l151 -101q-43 -64 -96 -117zM84 750l180 2q0 -60 15 -115l-179 -37q-16 75 -16 150zM98 899q12 75 43 145l166 -67q-23 -57 -31 -111zM147 455l166 73q14 -37 56 -98l-146 -106q-48 68 -76 131zM213 1178q41 61 96 116l127 -127q-45 -48 -74 -90z
M324 211l122 131q52 -49 93 -72l-97 -151q-62 39 -118 92zM428 1389q51 36 133 71l68 -166q-61 -23 -101 -55zM578 51l65 168q57 -23 111 -31l-29 -178q-82 16 -147 41zM707 1503q92 15 149 15v-181q-49 0 -117 -10zM856 10v180q44 0 115 11l35 -176q-92 -15 -150 -15z
M956 1339l31 179q84 -16 148 -41l-66 -168q-51 21 -113 30zM1081 233q62 23 103 56l100 -150q-51 -36 -133 -71zM1174 1257l96 152q65 -41 119 -92l-123 -131q-47 44 -92 71zM1341 1098l148 106q48 -68 76 -131l-166 -74q-25 57 -58 99zM1405 551q23 57 31 111l178 -33
q-12 -76 -43 -146zM1434 891l178 37q16 -75 16 -150l-180 -2q0 63 -14 115z" />
    <glyph glyph-name="uni25CF" unicode="&#x25cf;" horiz-adv-x="1712" 
d="M856 -25q-161 0 -304 57t-246 156t-162.5 239.5t-59.5 301.5q0 216 101.5 390t278 271t392.5 97t392.5 -97t278 -271t101.5 -390q0 -161 -59.5 -301.5t-162.5 -239.5t-246 -156t-304 -57z" />
    <glyph glyph-name="uni2639" unicode="&#x2639;" horiz-adv-x="1730" 
d="M864 -55q-160 0 -305 62.5t-250 167.5t-167 251t-62 307q0 159 62 304.5t167 250.5t250 167.5t305 62.5q161 0 306.5 -62.5t251 -167.5t167.5 -250.5t62 -304.5q0 -161 -62 -307t-167.5 -251t-251 -167.5t-306.5 -62.5zM256 733q0 -167 81 -308t221 -222.5t306 -81.5
q125 0 238.5 48t195 130t129.5 195.5t48 238.5q0 165 -81 305t-222 221.5t-308 81.5q-166 0 -306 -81.5t-221 -221.5t-81 -305zM471 434q35 147 142 233.5t257 86.5q149 0 256 -86.5t142 -233.5h-174q-30 77 -87.5 119.5t-136.5 42.5q-81 0 -138 -42t-87 -120h-174zM557 944
q0 44 33.5 76.5t79.5 32.5t79 -32.5t33 -76.5q0 -46 -33.5 -80.5t-78.5 -34.5q-46 0 -79.5 34.5t-33.5 80.5zM958 944q0 44 33.5 76.5t79.5 32.5q44 0 77.5 -32.5t33.5 -76.5q0 -46 -33.5 -80.5t-77.5 -34.5q-46 0 -79.5 34.5t-33.5 80.5z" />
    <glyph glyph-name="smileface" unicode="&#x263a;" horiz-adv-x="1730" 
d="M864 -55q-160 0 -305 62.5t-250 167.5t-167 251t-62 307q0 159 62 304.5t167 250.5t250 167.5t305 62.5q161 0 306.5 -62.5t251 -167.5t167.5 -250.5t62 -304.5q0 -161 -62 -307t-167.5 -251t-251 -167.5t-306.5 -62.5zM256 733q0 -167 81 -308t221 -222.5t306 -81.5
q125 0 238.5 48t195 130t129.5 195.5t48 238.5q0 165 -81 305t-222 221.5t-308 81.5q-166 0 -306 -81.5t-221 -221.5t-81 -305zM428 725h162q22 -99 100 -162t180 -63q101 0 179 63t100 162h164q-26 -168 -150.5 -276.5t-292.5 -108.5t-292.5 108.5t-149.5 276.5zM557 944
q0 44 33.5 76.5t79.5 32.5t79 -32.5t33 -76.5q0 -46 -33.5 -80.5t-78.5 -34.5q-46 0 -79.5 34.5t-33.5 80.5zM958 944q0 44 33.5 76.5t79.5 32.5q44 0 77.5 -32.5t33.5 -76.5q0 -46 -33.5 -80.5t-77.5 -34.5q-46 0 -79.5 34.5t-33.5 80.5z" />
    <glyph glyph-name="uni2776" unicode="&#x2776;" horiz-adv-x="1671" 
d="M836 -25q154 0 294 60t241 161t160.5 241.5t59.5 295.5q0 153 -59.5 292.5t-160.5 240.5t-241 161t-294 60t-294 -60t-241 -161t-161 -240.5t-60 -292.5q0 -155 60 -295.5t161 -241.5t241 -161t294 -60zM578 811v111h51q92 0 141 52.5t49 149.5h131v-794h-168v481h-204z
" />
    <glyph glyph-name="uni2777" unicode="&#x2777;" horiz-adv-x="1671" 
d="M836 -25q154 0 294 60t241 161t160.5 241.5t59.5 295.5q0 153 -59.5 292.5t-160.5 240.5t-241 161t-294 60t-294 -60t-241 -161t-161 -240.5t-60 -292.5q0 -155 60 -295.5t161 -241.5t241 -161t294 -60zM551 328q0 54 8.5 100t31.5 100.5t71.5 107.5t121.5 101l66 43
q96 62 96 133q0 38 -26.5 62t-67.5 24q-99 0 -123 -118l-166 6q13 117 94 189.5t193 72.5q113 0 187.5 -66t74.5 -170q0 -148 -182 -266l-58 -39q-117 -80 -129 -131h375v-149h-567z" />
    <glyph glyph-name="uni2778" unicode="&#x2778;" horiz-adv-x="1671" 
d="M836 -25q154 0 294 60t241 161t160.5 241.5t59.5 295.5q0 153 -59.5 292.5t-160.5 240.5t-241 161t-294 60t-294 -60t-241 -161t-161 -240.5t-60 -292.5q0 -155 60 -295.5t161 -241.5t241 -161t294 -60zM541 541l166 6q3 -40 42 -67t93 -27t90.5 32.5t36.5 79.5
q0 51 -40.5 86t-99.5 35h-53v139h53q46 0 76.5 27.5t30.5 62.5q0 39 -29 66t-71 27t-71 -19t-34 -49l-166 8q13 89 91.5 149t181.5 60q114 0 190 -61t76 -152q0 -61 -41.5 -111.5t-110.5 -68.5q79 -19 131 -80.5t52 -138.5q0 -101 -85 -171.5t-208 -70.5q-121 0 -208 69
t-93 169z" />
    <glyph glyph-name="uni2779" unicode="&#x2779;" horiz-adv-x="1671" 
d="M836 -25q154 0 294 60t241 161t160.5 241.5t59.5 295.5q0 153 -59.5 292.5t-160.5 240.5t-241 161t-294 60t-294 -60t-241 -161t-161 -240.5t-60 -292.5q0 -155 60 -295.5t161 -241.5t241 -161t294 -60zM479 473v139l387 512h142v-501h82v-150h-82v-143h-166v143h-363z
M676 623h166v219z" />
    <glyph glyph-name="uni277A" unicode="&#x277a;" horiz-adv-x="1671" 
d="M836 -25q154 0 294 60t241 161t160.5 241.5t59.5 295.5q0 153 -59.5 292.5t-160.5 240.5t-241 161t-294 60t-294 -60t-241 -161t-161 -240.5t-60 -292.5q0 -155 60 -295.5t161 -241.5t241 -161t294 -60zM543 532l166 7q7 -41 44 -67t83 -26q54 0 90.5 39.5t36.5 100.5
q0 62 -36.5 103.5t-90.5 41.5q-81 0 -123 -74h-158l66 469h460v-149h-319l-21 -154q45 45 125 45q110 0 186 -81t76 -201q0 -125 -85.5 -207t-211.5 -82q-114 0 -196.5 66t-91.5 169z" />
    <glyph glyph-name="uni277B" unicode="&#x277b;" horiz-adv-x="1671" 
d="M836 -25q154 0 294 60t241 161t160.5 241.5t59.5 295.5q0 153 -59.5 292.5t-160.5 240.5t-241 161t-294 60t-294 -60t-241 -161t-161 -240.5t-60 -292.5q0 -155 60 -295.5t161 -241.5t241 -161t294 -60zM547 680q0 133 33.5 237.5t106 170t175.5 65.5q94 0 166 -55
t92 -146l-162 -12q-21 72 -102 72q-61 0 -98.5 -57t-48.5 -152q58 74 157 74q113 0 186.5 -79t73.5 -206q0 -129 -82.5 -209t-209.5 -80q-134 0 -210.5 107t-76.5 270zM721 592q-1 -63 32 -101t87 -38q55 0 88 38t33 101q0 62 -32 98.5t-87 36.5q-52 0 -86 -37t-35 -98z" />
    <glyph glyph-name="uni277C" unicode="&#x277c;" horiz-adv-x="1671" 
d="M836 -25q154 0 294 60t241 161t160.5 241.5t59.5 295.5q0 153 -59.5 292.5t-160.5 240.5t-241 161t-294 60t-294 -60t-241 -161t-161 -240.5t-60 -292.5q0 -155 60 -295.5t161 -241.5t241 -161t294 -60zM553 975v149h565v-116q-235 -283 -235 -678h-166q0 167 58 334
t165 311h-387z" />
    <glyph glyph-name="uni277D" unicode="&#x277d;" horiz-adv-x="1671" 
d="M836 -25q154 0 294 60t241 161t160.5 241.5t59.5 295.5q0 153 -59.5 292.5t-160.5 240.5t-241 161t-294 60t-294 -60t-241 -161t-161 -240.5t-60 -292.5q0 -155 60 -295.5t161 -241.5t241 -161t294 -60zM528 549q0 76 45 131.5t127 83.5q-63 22 -98 66t-35 104
q0 95 77 157t192 62q116 0 192 -62t76 -157q0 -60 -35 -104t-98 -66q82 -29 127 -85t45 -130q0 -111 -86.5 -178.5t-220.5 -67.5t-221 67.5t-87 178.5zM694 571q0 -53 40 -85.5t102 -32.5t101.5 32.5t39.5 85.5q0 54 -40 90.5t-101 36.5t-101.5 -36.5t-40.5 -90.5zM733 913
q0 -44 29 -72t74 -28q44 0 73 28t29 72q0 40 -29 65.5t-73 25.5t-73.5 -25.5t-29.5 -65.5z" />
    <glyph glyph-name="uni277E" unicode="&#x277e;" horiz-adv-x="1671" 
d="M836 -25q154 0 294 60t241 161t160.5 241.5t59.5 295.5q0 153 -59.5 292.5t-160.5 240.5t-241 161t-294 60t-294 -60t-241 -161t-161 -240.5t-60 -292.5q0 -155 60 -295.5t161 -241.5t241 -161t294 -60zM545 864q0 129 82.5 209t210.5 80q134 0 210 -107t76 -270
q0 -215 -85.5 -344t-229.5 -129q-94 0 -167 55t-93 146l164 12q21 -72 102 -72q59 0 98.5 55t51.5 156q-59 -75 -160 -75q-114 0 -187 79t-73 205zM711 864q0 -62 31.5 -98.5t86.5 -36.5q52 0 87 37t36 98q1 62 -33 101t-88 39q-55 0 -87.5 -38.5t-32.5 -101.5z" />
    <glyph glyph-name="uni3002" unicode="&#x3002;" horiz-adv-x="733" 
d="M369 -248q-119 0 -204 83.5t-85 201.5q0 120 85 204.5t204 84.5q118 0 201 -84.5t83 -204.5q0 -119 -83 -202t-201 -83zM252 37q0 -47 35 -81t82 -34t79.5 33.5t32.5 81.5t-32.5 83.5t-79.5 35.5t-82 -36t-35 -83z" />
    <glyph glyph-name="uni3003" unicode="&#x3003;" horiz-adv-x="825" 
d="M438 985l-188 -410h-170l127 410h231zM387 575l125 410h233l-188 -410h-170z" />
    <glyph glyph-name="uni3008" unicode="&#x3008;" horiz-adv-x="813" 
d="M428 1681h305l-348 -956l348 -958h-305l-348 958z" />
    <glyph glyph-name="uni3009" unicode="&#x3009;" horiz-adv-x="813" 
d="M385 1681l348 -956l-348 -958h-305l348 958l-348 956h305z" />
    <glyph glyph-name="uni300A" unicode="&#x300a;" horiz-adv-x="1298" 
d="M428 1681h305l-348 -956l348 -958h-305l-348 958zM565 725l348 956h306l-349 -956l349 -958h-306z" />
    <glyph glyph-name="uni300B" unicode="&#x300b;" horiz-adv-x="1298" 
d="M870 1681l349 -956l-349 -958h-305l348 958l-348 956h305zM80 -233l348 958l-348 956h305l348 -956l-348 -958h-305z" />
    <glyph glyph-name="uni300C" unicode="&#x300c;" horiz-adv-x="788" 
d="M80 477v1215h629v-199h-426v-1016h-203z" />
    <glyph glyph-name="uni300D" unicode="&#x300d;" horiz-adv-x="788" 
d="M709 1004v-1215h-629v199h426v1016h203z" />
    <glyph glyph-name="uni300E" unicode="&#x300e;" horiz-adv-x="780" 
d="M80 477v1215h620v-328h-292v-887h-328zM170 567h147v887h293v148h-440v-1035z" />
    <glyph glyph-name="uni300F" unicode="&#x300f;" horiz-adv-x="780" 
d="M700 1016v-1215h-620v328h293v887h327zM170 -109h440v1035h-147v-887h-293v-148z" />
    <glyph glyph-name="uni3010" unicode="&#x3010;" horiz-adv-x="739" 
d="M659 1690q-263 -440 -263 -909t263 -910h-579v1819h579z" />
    <glyph glyph-name="uni3011" unicode="&#x3011;" horiz-adv-x="739" 
d="M659 1690v-1819h-579q262 441 262 910t-262 909h579z" />
    <glyph glyph-name="uni3014" unicode="&#x3014;" horiz-adv-x="806" 
d="M592 1741l133 -144l-442 -395v-956l444 -402l-131 -143l-516 463v1120z" />
    <glyph glyph-name="uni3015" unicode="&#x3015;" horiz-adv-x="806" 
d="M215 1741l512 -457v-1120l-516 -463l-131 143l444 402v956l-442 395z" />
    <glyph glyph-name="uni3016" unicode="&#x3016;" horiz-adv-x="772" 
d="M692 1690q-262 -440 -262 -909t262 -910h-612v1819h612zM197 -20h303q-377 807 0 1601h-303v-1601z" />
    <glyph glyph-name="uni3017" unicode="&#x3017;" horiz-adv-x="772" 
d="M692 1690v-1819h-612q262 441 262 910t-262 909h612zM272 -20h303v1601h-303q377 -794 0 -1601z" />
    <glyph glyph-name="uni301C" unicode="&#x301c;" horiz-adv-x="1781" 
d="M1548 866q-104 -94 -172.5 -127.5t-156.5 -33.5q-71 0 -132.5 20t-199.5 96q-71 41 -158 64.5t-160 23.5q-131 0 -239.5 -53t-249.5 -186l149 -209q83 94 164 138t178 44q125 0 277 -82q161 -85 223 -104t148 -19q246 0 483 228z" />
    <glyph glyph-name="uniA78B" unicode="&#xa78b;" horiz-adv-x="403" 
d="M84 1454h235v-295l-28 -414h-178l-29 414v295z" />
    <glyph glyph-name="uniA78C" unicode="&#xa78c;" horiz-adv-x="403" 
d="M84 1454h235v-295l-28 -414h-178l-29 414v295z" />
    <glyph glyph-name="uniFF01" unicode="&#xff01;" horiz-adv-x="565" 
d="M111 1454h311v-438q0 -79 -8 -171.5t-22 -206t-19 -171.5h-213q-5 58 -19 171.5t-22 206t-8 171.5v438zM98 0v305h330v-305h-330z" />
    <glyph glyph-name="uniFF02" unicode="&#xff02;" horiz-adv-x="784" 
d="M465 1454h242v-170l-50 -395h-182zM80 1284v170h239l-8 -565h-182z" />
    <glyph glyph-name="uniFF03" unicode="&#xff03;" horiz-adv-x="1206" 
d="M84 0l51 334h-143l33 248h147l43 278h-147l32 248h152l53 344l289 2l-53 -346h215l53 344l291 2l-53 -346h133l-33 -248h-139l-43 -278h137l-31 -248h-145l-52 -334h-286l51 334h-217l-51 -334h-287zM461 582h215l43 278h-217z" />
    <glyph glyph-name="uniFF05" unicode="&#xff05;" horiz-adv-x="1722" 
d="M1239 1487h313l-1060 -1512h-314zM80 1100q0 151 96.5 253.5t235.5 102.5t235 -102.5t96 -253.5t-96 -254t-235 -103t-235.5 103t-96.5 254zM293 1100q0 -86 32 -136.5t87 -50.5q57 0 88.5 50t31.5 137t-31.5 136.5t-88.5 49.5q-55 0 -87 -50t-32 -136zM979 356
q0 152 96 254.5t236 102.5q139 0 235 -103t96 -254t-96 -253.5t-235 -102.5q-140 0 -236 102t-96 254zM1192 356q0 -87 31 -136.5t88 -49.5t88 49.5t31 136.5t-31.5 137t-87.5 50t-87.5 -50t-31.5 -137z" />
    <glyph glyph-name="uniFF06" unicode="&#xff06;" horiz-adv-x="1458" 
d="M670 1487q-118 5 -219.5 -40.5t-162.5 -131.5t-61 -193q0 -159 150 -325l-21 -15q-153 -90 -217.5 -178.5t-64.5 -212.5q0 -196 163.5 -306t440.5 -110q192 0 326 86l51 -61h364l-198 229q69 77 112.5 186.5t50.5 227.5l-317 31q2 -63 -10 -122.5t-37 -94.5l-229 286
q265 142 299 334q15 79 -12.5 153t-85.5 129t-142.5 89.5t-179.5 38.5zM389 410q-2 108 148 198l262 -323q-52 -49 -158 -49q-118 0 -184 47.5t-68 126.5zM545 1100q-2 53 36 89.5t93 33.5q50 -3 78 -36.5t28 -86.5q0 -46 -40.5 -93t-114.5 -83q-80 101 -80 176z" />
    <glyph glyph-name="uniFF07" unicode="&#xff07;" horiz-adv-x="399" 
d="M80 1454h239v-172l-28 -393h-182l-29 393v172z" />
    <glyph glyph-name="uniFF08" unicode="&#xff08;" horiz-adv-x="712" 
d="M633 1536q-494 -880 0 -1761h-277q-278 431 -278 880.5t278 880.5h277z" />
    <glyph glyph-name="uniFF09" unicode="&#xff09;" horiz-adv-x="712" 
d="M356 1536q278 -431 278 -880.5t-278 -880.5h-276q494 881 0 1761h276z" />
    <glyph glyph-name="uniFF0A" unicode="&#xff0a;" horiz-adv-x="872" 
d="M793 1210v-180l-209 4l110 -178l-157 -90l-101 182l-100 -182l-158 90l111 178l-209 -4v180l209 -4l-111 178l158 91l100 -183l101 183l157 -91l-110 -178z" />
    <glyph glyph-name="uniFF0C" unicode="&#xff0c;" horiz-adv-x="489" 
d="M410 0l-142 -324h-166l93 324h-115v305h330v-305z" />
    <glyph glyph-name="uniFF0D" unicode="&#xff0d;" horiz-adv-x="1476" 
d="M80 844h1317v-250h-1317v250z" />
    <glyph glyph-name="uniFF0E" unicode="&#xff0e;" horiz-adv-x="489" 
d="M80 287h330v-305h-330v305z" />
    <glyph glyph-name="uniFF0F" unicode="&#xff0f;" horiz-adv-x="989" 
d="M63 -225l605 1761h311l-606 -1761h-310z" />
    <glyph glyph-name="uniFF1A" unicode="&#xff1a;" horiz-adv-x="489" 
d="M80 305h330v-305h-330v305zM80 662v305h330v-305h-330z" />
    <glyph glyph-name="uniFF1B" unicode="&#xff1b;" horiz-adv-x="489" 
d="M80 967h330v-305h-330v305zM80 0v305h330v-305l-142 -324h-166l93 324h-115z" />
    <glyph glyph-name="uniFF1F" unicode="&#xff1f;" horiz-adv-x="1220" 
d="M449 465q0 147 42.5 236.5t153.5 164.5q18 13 51.5 34t51 34t38.5 33t30 45t9 57q0 73 -56.5 117.5t-150.5 44.5q-87 0 -146 -60t-71 -159l-321 12q20 205 166.5 334t367.5 129q232 0 379.5 -117.5t147.5 -300.5q0 -109 -54.5 -189.5t-181.5 -158.5
q-82 -51 -114.5 -107.5t-32.5 -148.5h-309zM436 0v305h330v-305h-330z" />
    <glyph glyph-name="uniFF20" unicode="&#xff20;" horiz-adv-x="1925" 
d="M1204 1004h191l-35 -437q-15 -171 37 -198q21 -21 49.5 -21.5t58 20t54.5 56.5t42.5 94.5t20.5 128.5q9 166 -63 300t-208.5 210t-310.5 76q-191 0 -350 -81t-253.5 -222.5t-102.5 -315.5q-7 -150 38 -270t134 -196.5t211.5 -113.5t277.5 -24t324 76l49 -215
q-175 -64 -344.5 -80.5t-314 11t-266 97.5t-204.5 172.5t-125.5 242t-33.5 300.5q10 174 91.5 329.5t211 267.5t305 177.5t365.5 65.5q170 0 323 -63t260.5 -170t164 -257t40.5 -315q-21 -250 -174 -380q-111 -95 -245 -94q-121 2 -189 80q-38 42 -49 101q-37 -84 -120 -135
t-185 -51q-190 0 -289 122t-78 302q18 187 137.5 312.5t308.5 125.5q77 0 140 -28t100 -78zM758 594q-10 -104 35.5 -173t144.5 -69t156 69t67 173q10 107 -35.5 176.5t-144.5 69.5q-100 0 -156.5 -69t-66.5 -177z" />
    <glyph glyph-name="uniFF3B" unicode="&#xff3b;" horiz-adv-x="784" 
d="M80 1536h625v-256h-330v-1249h330v-256h-625v1761z" />
    <glyph glyph-name="uniFF3C" unicode="&#xff3c;" horiz-adv-x="978" 
d="M991 -225h-309l-606 1761h311z" />
    <glyph glyph-name="uniFF3D" unicode="&#xff3d;" horiz-adv-x="784" 
d="M705 1536v-1761h-625v256h330v1249h-330v256h625z" />
    <glyph glyph-name="uniFF3F" unicode="&#xff3f;" horiz-adv-x="1157" 
d="M80 -76h997v-252h-997v252z" />
    <glyph glyph-name="uniFF5B" unicode="&#xff5b;" horiz-adv-x="882" 
d="M80 770q94 -2 139 50.5t45 174.5v170q0 170 124 279.5t319 109.5h96v-268q-127 6 -186.5 -34.5t-59.5 -131.5v-133q0 -137 -81.5 -228.5t-211.5 -103.5v-10q131 -12 212 -104.5t81 -231.5v-131q0 -95 59.5 -137.5t186.5 -38.5v-258h-96q-195 0 -319 108.5t-124 278.5v170
q0 122 -45 175t-139 50v244z" />
    <glyph glyph-name="uniFF5D" unicode="&#xff5d;" horiz-adv-x="882" 
d="M803 526q-94 3 -139.5 -50t-45.5 -175v-170q0 -170 -123.5 -278.5t-318.5 -108.5h-96v258q127 -4 186.5 38.5t59.5 137.5v131q0 139 80.5 231.5t211.5 104.5v10q-130 12 -211 103.5t-81 228.5v133q0 91 -59.5 131.5t-186.5 34.5v268h96q195 0 318.5 -109t123.5 -280v-170
q0 -122 45 -174.5t140 -50.5v-244z" />
    <glyph glyph-name="uni004A0301" horiz-adv-x="1284" 
d="M416 532q0 -147 55 -224t160 -77q106 0 162.5 75t56.5 216v932h313v-932q0 -251 -148 -403t-392 -152q-228 0 -374.5 153.5t-148.5 393.5zM907 1616l129 266h248l-186 -266h-191z" />
    <glyph glyph-name="uni013B.loclMAH" horiz-adv-x="1206" 
d="M152 0v1454h313v-1190h670v-264h-983zM418 -389l129 266h248l-187 -266h-190z" />
    <glyph glyph-name="uni0145.loclMAH" horiz-adv-x="1531" 
d="M152 1454h344l571 -995v995h313v-1454h-356l-559 961v-961h-313v1454zM537 -389l129 266h247l-186 -266h-190z" />
    <glyph glyph-name="R.ss04" horiz-adv-x="1452" 
d="M733 1454q267 0 414 -120.5t147 -340.5q0 -142 -69.5 -249t-200.5 -156l324 -588h-338l-283 532h-16h-246v-532h-313v1454h581zM465 795h252q120 0 188 50t68 146q0 97 -68.5 148t-187.5 51h-252v-395z" />
    <glyph glyph-name="Racute.ss04" horiz-adv-x="1452" 
d="M733 1454q267 0 414 -120.5t147 -340.5q0 -142 -69.5 -249t-200.5 -156l324 -588h-338l-283 532h-16h-246v-532h-313v1454h581zM465 795h252q120 0 188 50t68 146q0 97 -68.5 148t-187.5 51h-252v-395zM602 1616l129 266h248l-186 -266h-191z" />
    <glyph glyph-name="Rcaron.ss04" horiz-adv-x="1452" 
d="M733 1454q267 0 414 -120.5t147 -340.5q0 -142 -69.5 -249t-200.5 -156l324 -588h-338l-283 532h-16h-246v-532h-313v1454h581zM360 1864h213l125 -174l125 174h211l-178 -246h-319zM465 795h252q120 0 188 50t68 146q0 97 -68.5 148t-187.5 51h-252v-395z" />
    <glyph glyph-name="uni0156.ss04" horiz-adv-x="1452" 
d="M733 1454q267 0 414 -120.5t147 -340.5q0 -142 -69.5 -249t-200.5 -156l324 -588h-338l-283 532h-16h-246v-532h-313v1454h581zM465 795h252q120 0 188 50t68 146q0 97 -68.5 148t-187.5 51h-252v-395zM477 -389l129 266h248l-186 -266h-191z" />
    <glyph glyph-name="I.ss05" horiz-adv-x="964" 
d="M870 1454v-264h-231v-926h244v-264h-799v264h242v926h-230v264h774z" />
    <glyph glyph-name="Iacute.ss05" horiz-adv-x="964" 
d="M870 1454v-264h-231v-926h244v-264h-799v264h242v926h-230v264h774zM383 1616l129 266h248l-187 -266h-190z" />
    <glyph glyph-name="Icircumflex.ss05" horiz-adv-x="964" 
d="M870 1454v-264h-231v-926h244v-264h-799v264h242v926h-230v264h774zM145 1616l177 246h319l178 -246h-211l-125 174l-125 -174h-213z" />
    <glyph glyph-name="Idieresis.ss05" horiz-adv-x="964" 
d="M870 1454v-264h-231v-926h244v-264h-799v264h242v926h-230v264h774zM109 1595v228h319v-228h-319zM530 1595v228h320v-228h-320z" />
    <glyph glyph-name="Idotaccent.ss05" horiz-adv-x="964" 
d="M870 1454v-264h-231v-926h244v-264h-799v264h242v926h-230v264h774zM324 1595v228h319v-228h-319z" />
    <glyph glyph-name="Igrave.ss05" horiz-adv-x="964" 
d="M870 1454v-264h-231v-926h244v-264h-799v264h242v926h-230v264h774zM201 1882h254l129 -266h-197z" />
    <glyph glyph-name="Imacron.ss05" horiz-adv-x="964" 
d="M870 1454v-264h-231v-926h244v-264h-799v264h242v926h-230v264h774zM186 1630v203h594v-203h-594z" />
    <glyph glyph-name="Iogonek.ss05" horiz-adv-x="964" 
d="M870 1454v-264h-231v-926h244v-264h-2l-52 -68q-67 -87 -67 -135q0 -29 19 -48t48 -19q50 0 123 47v-166q-81 -67 -198 -60q-78 3 -132.5 56.5t-54.5 126.5q0 113 90 200l64 66h-637v264h242v926h-230v264h774z" />
    <glyph glyph-name="Itilde.ss05" horiz-adv-x="964" 
d="M870 1454v-264h-231v-926h244v-264h-799v264h242v926h-230v264h774zM123 1608q0 142 60.5 222.5t166.5 80.5q90 0 150 -60q8 -7 21 -19.5t19.5 -18t17 -13t20 -10t20.5 -2.5q64 0 64 121h180q0 -141 -61 -222t-167 -81q-94 0 -159 65l-23.5 23.5t-18.5 15.5t-23 13t-23 3
q-64 0 -64 -118h-180z" />
    <glyph glyph-name="G.ss06" horiz-adv-x="1490" 
d="M778 758h639v-88q0 -149 -34 -268.5t-93 -199.5t-140 -134t-172 -77.5t-194 -23.5q-158 0 -290 58t-221.5 159.5t-139 240.5t-49.5 300t49.5 301t139 242t221.5 160.5t290 58.5q246 0 408 -134.5t217 -375.5l-324 -14q-30 126 -107.5 193t-199.5 67q-124 0 -209.5 -66.5
t-124 -176.5t-38.5 -255q0 -221 94.5 -357.5t277.5 -136.5q139 0 222 80t98 215h-320v232z" />
    <glyph glyph-name="Gbreve.ss06" horiz-adv-x="1490" 
d="M778 758h639v-88q0 -149 -34 -268.5t-93 -199.5t-140 -134t-172 -77.5t-194 -23.5q-158 0 -290 58t-221.5 159.5t-139 240.5t-49.5 300t49.5 301t139 242t221.5 160.5t290 58.5q246 0 408 -134.5t217 -375.5l-324 -14q-30 126 -107.5 193t-199.5 67q-124 0 -209.5 -66.5
t-124 -176.5t-38.5 -255q0 -221 94.5 -357.5t277.5 -136.5q139 0 222 80t98 215h-320v232zM463 1890h188q0 -54 38 -89.5t95 -35.5t95.5 35.5t38.5 89.5h190q0 -119 -94 -200.5t-230 -81.5q-135 0 -228 81.5t-93 200.5z" />
    <glyph glyph-name="Gcircumflex.ss06" horiz-adv-x="1490" 
d="M778 758h639v-88q0 -149 -34 -268.5t-93 -199.5t-140 -134t-172 -77.5t-194 -23.5q-158 0 -290 58t-221.5 159.5t-139 240.5t-49.5 300t49.5 301t139 242t221.5 160.5t290 58.5q246 0 408 -134.5t217 -375.5l-324 -14q-30 126 -107.5 193t-199.5 67q-124 0 -209.5 -66.5
t-124 -176.5t-38.5 -255q0 -221 94.5 -357.5t277.5 -136.5q139 0 222 80t98 215h-320v232zM449 1616l176 246h319l178 -246h-211l-125 174l-124 -174h-213z" />
    <glyph glyph-name="uni0122.ss06" horiz-adv-x="1490" 
d="M778 758h639v-88q0 -149 -34 -268.5t-93 -199.5t-140 -134t-172 -77.5t-194 -23.5q-158 0 -290 58t-221.5 159.5t-139 240.5t-49.5 300t49.5 301t139 242t221.5 160.5t290 58.5q246 0 408 -134.5t217 -375.5l-324 -14q-30 126 -107.5 193t-199.5 67q-124 0 -209.5 -66.5
t-124 -176.5t-38.5 -255q0 -221 94.5 -357.5t277.5 -136.5q139 0 222 80t98 215h-320v232zM561 -389l129 266h248l-186 -266h-191z" />
    <glyph glyph-name="Gdotaccent.ss06" horiz-adv-x="1490" 
d="M778 758h639v-88q0 -149 -34 -268.5t-93 -199.5t-140 -134t-172 -77.5t-194 -23.5q-158 0 -290 58t-221.5 159.5t-139 240.5t-49.5 300t49.5 301t139 242t221.5 160.5t290 58.5q246 0 408 -134.5t217 -375.5l-324 -14q-30 126 -107.5 193t-199.5 67q-124 0 -209.5 -66.5
t-124 -176.5t-38.5 -255q0 -221 94.5 -357.5t277.5 -136.5q139 0 222 80t98 215h-320v232zM627 1595v228h319v-228h-319z" />
    <glyph glyph-name="uni1E20.ss06" horiz-adv-x="1490" 
d="M778 758h639v-88q0 -149 -34 -268.5t-93 -199.5t-140 -134t-172 -77.5t-194 -23.5q-158 0 -290 58t-221.5 159.5t-139 240.5t-49.5 300t49.5 301t139 242t221.5 160.5t290 58.5q246 0 408 -134.5t217 -375.5l-324 -14q-30 126 -107.5 193t-199.5 67q-124 0 -209.5 -66.5
t-124 -176.5t-38.5 -255q0 -221 94.5 -357.5t277.5 -136.5q139 0 222 80t98 215h-320v232zM487 1630v203h594v-203h-594z" />
    <glyph glyph-name="Adieresis.ss08" horiz-adv-x="1519" 
d="M51 0l524 1454h369l524 -1454h-323l-107 307h-557l-106 -307h-324zM408 1735q0 63 43 105t108 42t108.5 -42t43.5 -105q0 -64 -43.5 -107t-108.5 -43t-108 43t-43 107zM569 567h381l-190 559zM805 1735q0 63 42.5 105t106.5 42q65 0 109.5 -42t44.5 -105
q0 -64 -44.5 -107t-109.5 -43q-64 0 -106.5 42.5t-42.5 107.5z" />
    <glyph glyph-name="Cdotaccent.ss08" horiz-adv-x="1492" 
d="M1417 522q-44 -264 -208.5 -409.5t-424.5 -145.5q-158 0 -290 58t-221.5 159.5t-139 240.5t-49.5 300t49.5 301t139 242t221.5 160.5t290 58.5q251 0 415.5 -140t211.5 -393l-326 -14q-26 135 -106 209t-201 74q-124 0 -209.5 -66.5t-124 -176.5t-38.5 -255
q0 -221 94.5 -357.5t277.5 -136.5q126 0 207.5 80t104.5 226zM635 1735q0 63 42 103t107 40t108.5 -40.5t43.5 -102.5q0 -64 -43.5 -106t-108.5 -42t-107 42t-42 106z" />
    <glyph glyph-name="Edieresis.ss08" horiz-adv-x="1273" 
d="M152 1454h1013v-264h-700v-332h676v-258h-676v-336h717v-264h-1030v1454zM307 1737q0 63 43 105t107 42q65 0 109 -42t44 -105q0 -64 -44 -107t-109 -43t-107.5 42.5t-42.5 107.5zM702 1737q0 63 43.5 105t108.5 42t108.5 -42t43.5 -105q0 -64 -43.5 -107t-108.5 -43
t-108.5 43t-43.5 107z" />
    <glyph glyph-name="Edotaccent.ss08" horiz-adv-x="1273" 
d="M152 1454h1013v-264h-700v-332h676v-258h-676v-336h717v-264h-1030v1454zM508 1737q0 63 42 103t107 40t108.5 -40.5t43.5 -102.5q0 -64 -43.5 -106t-108.5 -42t-107 42t-42 106z" />
    <glyph glyph-name="Gdotaccent.ss08" horiz-adv-x="1507" 
d="M1413 0h-190l-17 213q-51 -114 -168.5 -180t-269.5 -66q-203 0 -360 100t-240.5 272t-83.5 386q0 161 49.5 301t139 242t221.5 160.5t290 58.5q247 0 409.5 -135t215.5 -375l-324 -14q-30 126 -107.5 193t-199.5 67q-124 0 -209.5 -66.5t-124 -176.5t-38.5 -255
q0 -221 94.5 -357.5t277.5 -136.5q137 0 219 80t101 215h-320v232h635v-758zM635 1735q0 63 42 103t107 40t108.5 -40.5t43.5 -102.5q0 -64 -43.5 -106t-108.5 -42t-107 42t-42 106z" />
    <glyph glyph-name="Idieresis.ss08" horiz-adv-x="616" 
d="M152 1454h313v-1454h-313v1454zM-43 1735q0 63 42.5 105t106.5 42q65 0 109.5 -42t44.5 -105q0 -64 -44.5 -107t-109.5 -43q-64 0 -106.5 42.5t-42.5 107.5zM352 1735q0 63 43.5 105t108.5 42q63 0 107 -42t44 -105q0 -64 -44 -107t-107 -43q-65 0 -108.5 43t-43.5 107z
" />
    <glyph glyph-name="Idotaccent.ss08" horiz-adv-x="616" 
d="M152 1454h313v-1454h-313v1454zM158 1735q0 63 42 103t107 40t108.5 -40.5t43.5 -102.5q0 -64 -43.5 -106t-108.5 -42t-107 42t-42 106z" />
    <glyph glyph-name="Odieresis.ss08" horiz-adv-x="1583" 
d="M791 -33q-330 0 -518.5 203t-188.5 555q0 354 188 558t519 204q332 0 520 -203.5t188 -558.5q0 -352 -188 -555t-520 -203zM408 725q0 -232 101 -363t282 -131q184 0 285.5 130.5t101.5 363.5q0 235 -101.5 366.5t-285.5 131.5q-181 0 -282 -131.5t-101 -366.5zM440 1735
q0 63 43 105t107 42q65 0 108 -42t43 -105q0 -64 -43 -107t-108 -43q-64 0 -107 42.5t-43 107.5zM836 1735q0 63 43 105t106 42q65 0 109.5 -42t44.5 -105q0 -64 -44.5 -107t-109.5 -43q-63 0 -106 43t-43 107z" />
    <glyph glyph-name="Udieresis.ss08" horiz-adv-x="1441" 
d="M1321 526q0 -258 -161.5 -408.5t-438.5 -150.5t-438.5 150.5t-161.5 408.5v930h313v-930q0 -145 74.5 -220t212.5 -75q137 0 212 75.5t75 219.5v930h313v-930zM369 1735q0 63 43 105t106 42q65 0 109.5 -42t44.5 -105q0 -64 -44.5 -107t-109.5 -43q-63 0 -106 43t-43 107
zM764 1735q0 63 43 105t108 42t108.5 -42t43.5 -105q0 -64 -43.5 -107t-108.5 -43t-108 43t-43 107z" />
    <glyph glyph-name="Wdieresis.ss08" horiz-adv-x="2029" 
d="M51 1454h326l248 -1020l252 1020h274l254 -1020l246 1020h327l-393 -1454h-334l-237 907l-236 -907h-336zM664 1735q0 63 42.5 105t106.5 42q65 0 108.5 -42t43.5 -105q0 -64 -43.5 -107t-108.5 -43q-64 0 -106.5 42.5t-42.5 107.5zM1059 1735q0 63 43 105t106 42
q65 0 109.5 -42t44.5 -105q0 -64 -44.5 -107t-109.5 -43q-63 0 -106 43t-43 107z" />
    <glyph glyph-name="Ydieresis.ss08" horiz-adv-x="1423" 
d="M51 1454h344l318 -590l317 590h342l-502 -889v-565h-313v565zM360 1735q0 63 43.5 105t108.5 42t108.5 -42t43.5 -105q0 -64 -43.5 -107t-108.5 -43t-108.5 43t-43.5 107zM758 1735q0 63 42.5 105t106.5 42q65 0 109.5 -42t44.5 -105q0 -64 -44.5 -107t-109.5 -43
q-64 0 -106.5 42.5t-42.5 107.5z" />
    <glyph glyph-name="Zdotaccent.ss08" horiz-adv-x="1222" 
d="M1149 1214l-725 -950h741v-264h-1108v262l705 928h-662v264h1049v-240zM477 1735q0 63 42.5 103t107.5 40t108 -40t43 -103q0 -64 -43 -106t-108 -42t-107.5 42t-42.5 106z" />
    <glyph glyph-name="Idieresis.ss05.ss08" horiz-adv-x="964" 
d="M870 1454v-264h-231v-926h244v-264h-799v264h242v926h-230v264h774zM131 1735q0 63 43 105t107 42q65 0 109 -42t44 -105q0 -64 -44 -107t-109 -43t-107.5 42.5t-42.5 107.5zM526 1735q0 63 43.5 105t108.5 42t108 -42t43 -105q0 -64 -43 -107t-108 -43t-108.5 43
t-43.5 107z" />
    <glyph glyph-name="Idotaccent.ss05.ss08" horiz-adv-x="964" 
d="M870 1454v-264h-231v-926h244v-264h-799v264h242v926h-230v264h774zM332 1735q0 63 42 103t107 40t108.5 -40.5t43.5 -102.5q0 -64 -43.5 -106t-108.5 -42t-107 42t-42 106z" />
    <glyph glyph-name="Gdotaccent.ss06.ss08" horiz-adv-x="1490" 
d="M778 758h639v-88q0 -149 -34 -268.5t-93 -199.5t-140 -134t-172 -77.5t-194 -23.5q-158 0 -290 58t-221.5 159.5t-139 240.5t-49.5 300t49.5 301t139 242t221.5 160.5t290 58.5q246 0 408 -134.5t217 -375.5l-324 -14q-30 126 -107.5 193t-199.5 67q-124 0 -209.5 -66.5
t-124 -176.5t-38.5 -255q0 -221 94.5 -357.5t277.5 -136.5q139 0 222 80t98 215h-320v232zM635 1735q0 63 42 103t107 40t108.5 -40.5t43.5 -102.5q0 -64 -43.5 -106t-108.5 -42t-107 42t-42 106z" />
    <glyph glyph-name="A_I.dlig" horiz-adv-x="2486" 
d="M51 0l524 1454h369l524 -1454h-323l-107 307h-557l-106 -307h-324zM569 567h381l-190 559zM1604 0v264h241v926h-229v264h774v-264h-231v-926h243v-264h-798z" />
    <glyph glyph-name="U_I.dlig" horiz-adv-x="2406" 
d="M1321 526q0 -258 -161.5 -408.5t-438.5 -150.5t-438.5 150.5t-161.5 408.5v930h313v-930q0 -145 74.5 -220t212.5 -75q137 0 212 75.5t75 219.5v930h313v-930zM1526 0v264h241v926h-229v264h774v-264h-231v-926h243v-264h-798z" />
    <glyph glyph-name="i.loclTRK" horiz-adv-x="577" 
d="M133 1085h311v-1085h-311v1085zM129 1227v227h320v-227h-320z" />
    <glyph glyph-name="uni006A0301" horiz-adv-x="677" 
d="M545 55q0 -362 -365 -362h-186v231h127q53 0 84 35.5t31 95.5v1030h309v-1030zM291 1247l129 266h248l-187 -266h-190z" />
    <glyph glyph-name="uni013C.loclMAH" horiz-adv-x="671" 
d="M133 1454h311v-1139q0 -40 21 -62t61 -22h78v-231h-168q-138 0 -220.5 79.5t-82.5 223.5v1151zM154 -389l129 266h247l-186 -266h-190z" />
    <glyph glyph-name="uni0146.loclMAH" horiz-adv-x="1251" 
d="M133 1085h279l8 -174q82 199 323 199q177 0 276 -110.5t99 -301.5v-698h-309v596q0 136 -37.5 202t-128.5 66q-98 0 -148.5 -69t-50.5 -199v-596h-311v1085zM401 -389l129 266h248l-186 -266h-191z" />
    <glyph glyph-name="a.ss01" horiz-adv-x="1224" 
d="M387 297q0 -55 44.5 -92.5t123.5 -34.5q103 3 166.5 80t62.5 207v26l-180 -34q-114 -23 -149 -40q-68 -33 -68 -112zM70 289q0 60 17.5 107t49 80.5t81 59.5t105.5 43t132 31l325 64v4q0 229 -188 229q-78 0 -128 -45.5t-65 -128.5l-311 17q31 172 162.5 266t341.5 94
q243 0 371.5 -118.5t128.5 -354.5v-637h-277l-10 152q-36 -78 -125 -127t-227 -52q-164 0 -273.5 87t-109.5 229z" />
    <glyph glyph-name="aacute.ss01" horiz-adv-x="1224" 
d="M387 297q0 -55 44.5 -92.5t123.5 -34.5q103 3 166.5 80t62.5 207v26l-180 -34q-114 -23 -149 -40q-68 -33 -68 -112zM70 289q0 60 17.5 107t49 80.5t81 59.5t105.5 43t132 31l325 64v4q0 229 -188 229q-78 0 -128 -45.5t-65 -128.5l-311 17q31 172 162.5 266t341.5 94
q243 0 371.5 -118.5t128.5 -354.5v-637h-277l-10 152q-36 -78 -125 -127t-227 -52q-164 0 -273.5 87t-109.5 229zM492 1247l129 266h247l-186 -266h-190z" />
    <glyph glyph-name="abreve.ss01" horiz-adv-x="1224" 
d="M387 297q0 -55 44.5 -92.5t123.5 -34.5q103 3 166.5 80t62.5 207v26l-180 -34q-114 -23 -149 -40q-68 -33 -68 -112zM70 289q0 60 17.5 107t49 80.5t81 59.5t105.5 43t132 31l325 64v4q0 229 -188 229q-78 0 -128 -45.5t-65 -128.5l-311 17q31 172 162.5 266t341.5 94
q243 0 371.5 -118.5t128.5 -354.5v-637h-277l-10 152q-36 -78 -125 -127t-227 -52q-164 0 -273.5 87t-109.5 229zM270 1522h189q0 -54 38 -89.5t95 -35.5t95 35.5t38 89.5h190q0 -119 -93.5 -201t-229.5 -82q-135 0 -228.5 82t-93.5 201z" />
    <glyph glyph-name="uni01CE.ss01" horiz-adv-x="1224" 
d="M387 297q0 -55 44.5 -92.5t123.5 -34.5q103 3 166.5 80t62.5 207v26l-180 -34q-114 -23 -149 -40q-68 -33 -68 -112zM70 289q0 60 17.5 107t49 80.5t81 59.5t105.5 43t132 31l325 64v4q0 229 -188 229q-78 0 -128 -45.5t-65 -128.5l-311 17q31 172 162.5 266t341.5 94
q243 0 371.5 -118.5t128.5 -354.5v-637h-277l-10 152q-36 -78 -125 -127t-227 -52q-164 0 -273.5 87t-109.5 229zM252 1495h213l125 -174l125 174h211l-178 -246h-320z" />
    <glyph glyph-name="acircumflex.ss01" horiz-adv-x="1224" 
d="M387 297q0 -55 44.5 -92.5t123.5 -34.5q103 3 166.5 80t62.5 207v26l-180 -34q-114 -23 -149 -40q-68 -33 -68 -112zM70 289q0 60 17.5 107t49 80.5t81 59.5t105.5 43t132 31l325 64v4q0 229 -188 229q-78 0 -128 -45.5t-65 -128.5l-311 17q31 172 162.5 266t341.5 94
q243 0 371.5 -118.5t128.5 -354.5v-637h-277l-10 152q-36 -78 -125 -127t-227 -52q-164 0 -273.5 87t-109.5 229zM254 1247l176 246h320l178 -246h-211l-125 174l-125 -174h-213z" />
    <glyph glyph-name="adieresis.ss01" horiz-adv-x="1224" 
d="M387 297q0 -55 44.5 -92.5t123.5 -34.5q103 3 166.5 80t62.5 207v26l-180 -34q-114 -23 -149 -40q-68 -33 -68 -112zM70 289q0 60 17.5 107t49 80.5t81 59.5t105.5 43t132 31l325 64v4q0 229 -188 229q-78 0 -128 -45.5t-65 -128.5l-311 17q31 172 162.5 266t341.5 94
q243 0 371.5 -118.5t128.5 -354.5v-637h-277l-10 152q-36 -78 -125 -127t-227 -52q-164 0 -273.5 87t-109.5 229zM219 1227v227h320v-227h-320zM639 1227v227h319v-227h-319z" />
    <glyph glyph-name="agrave.ss01" horiz-adv-x="1224" 
d="M387 297q0 -55 44.5 -92.5t123.5 -34.5q103 3 166.5 80t62.5 207v26l-180 -34q-114 -23 -149 -40q-68 -33 -68 -112zM70 289q0 60 17.5 107t49 80.5t81 59.5t105.5 43t132 31l325 64v4q0 229 -188 229q-78 0 -128 -45.5t-65 -128.5l-311 17q31 172 162.5 266t341.5 94
q243 0 371.5 -118.5t128.5 -354.5v-637h-277l-10 152q-36 -78 -125 -127t-227 -52q-164 0 -273.5 87t-109.5 229zM309 1513h254l129 -266h-196z" />
    <glyph glyph-name="amacron.ss01" horiz-adv-x="1224" 
d="M387 297q0 -55 44.5 -92.5t123.5 -34.5q103 3 166.5 80t62.5 207v26l-180 -34q-114 -23 -149 -40q-68 -33 -68 -112zM70 289q0 60 17.5 107t49 80.5t81 59.5t105.5 43t132 31l325 64v4q0 229 -188 229q-78 0 -128 -45.5t-65 -128.5l-311 17q31 172 162.5 266t341.5 94
q243 0 371.5 -118.5t128.5 -354.5v-637h-277l-10 152q-36 -78 -125 -127t-227 -52q-164 0 -273.5 87t-109.5 229zM295 1262v202h594v-202h-594z" />
    <glyph glyph-name="aogonek.ss01" horiz-adv-x="1224" 
d="M387 297q0 -55 44.5 -92.5t123.5 -34.5q103 3 166.5 80t62.5 207v26l-180 -34q-114 -23 -149 -40q-68 -33 -68 -112zM70 289q0 60 17.5 107t49 80.5t81 59.5t105.5 43t132 31l325 64v4q0 229 -188 229q-78 0 -128 -45.5t-65 -128.5l-311 17q31 172 162.5 266t341.5 94
q243 0 371.5 -118.5t128.5 -354.5v-637l-52 -68q-67 -87 -67 -135q0 -29 19 -48t48 -19q50 0 123 47v-166q-81 -67 -198 -60q-78 3 -132.5 56.5t-54.5 126.5q0 113 90 200l64 66h-117l-10 152q-36 -78 -125 -127t-227 -52q-164 0 -273.5 87t-109.5 229z" />
    <glyph glyph-name="aring.ss01" horiz-adv-x="1224" 
d="M387 297q0 -55 44.5 -92.5t123.5 -34.5q103 3 166.5 80t62.5 207v26l-180 -34q-114 -23 -149 -40q-68 -33 -68 -112zM70 289q0 60 17.5 107t49 80.5t81 59.5t105.5 43t132 31l325 64v4q0 229 -188 229q-78 0 -128 -45.5t-65 -128.5l-311 17q31 172 162.5 266t341.5 94
q243 0 371.5 -118.5t128.5 -354.5v-637h-277l-10 152q-36 -78 -125 -127t-227 -52q-164 0 -273.5 87t-109.5 229zM381 1401q0 87 62 149t149 62q86 0 147.5 -62.5t61.5 -148.5q0 -89 -61 -149t-148 -60q-88 0 -149.5 60t-61.5 149zM518 1401q0 -29 21.5 -50.5t52.5 -21.5
q29 0 49.5 21.5t20.5 50.5q0 28 -20.5 50t-49.5 22q-30 0 -52 -22t-22 -50z" />
    <glyph glyph-name="atilde.ss01" horiz-adv-x="1224" 
d="M387 297q0 -55 44.5 -92.5t123.5 -34.5q103 3 166.5 80t62.5 207v26l-180 -34q-114 -23 -149 -40q-68 -33 -68 -112zM70 289q0 60 17.5 107t49 80.5t81 59.5t105.5 43t132 31l325 64v4q0 229 -188 229q-78 0 -128 -45.5t-65 -128.5l-311 17q31 172 162.5 266t341.5 94
q243 0 371.5 -118.5t128.5 -354.5v-637h-277l-10 152q-36 -78 -125 -127t-227 -52q-164 0 -273.5 87t-109.5 229zM231 1239q0 142 61 222.5t167 80.5q90 0 149 -59q6 -5 25 -23.5t25.5 -23t20.5 -11t28 -6.5q63 0 63 121h180q0 -141 -60.5 -222t-166.5 -81q-94 0 -160 66
l-23.5 23.5t-18.5 15.5t-23 13t-23 3q-63 0 -63 -119h-181z" />
    <glyph glyph-name="a.ss02" horiz-adv-x="1302" 
d="M1169 1085v-1085h-297l-6 156q-45 -87 -128 -134t-199 -47q-146 0 -251.5 76t-156.5 203t-51 289t51 288.5t156.5 202.5t251.5 76q219 0 321 -174v149h309zM397 543q0 -91 25 -164.5t80.5 -120.5t134.5 -47q118 0 180 95t62 237q0 94 -25 168t-81 121t-136 47
t-135.5 -46.5t-80 -120.5t-24.5 -169z" />
    <glyph glyph-name="aacute.ss02" horiz-adv-x="1302" 
d="M1169 1085v-1085h-297l-6 156q-45 -87 -128 -134t-199 -47q-146 0 -251.5 76t-156.5 203t-51 289t51 288.5t156.5 202.5t251.5 76q219 0 321 -174v149h309zM397 543q0 -91 25 -164.5t80.5 -120.5t134.5 -47q118 0 180 95t62 237q0 94 -25 168t-81 121t-136 47
t-135.5 -46.5t-80 -120.5t-24.5 -169zM532 1247l130 266h247l-186 -266h-191z" />
    <glyph glyph-name="abreve.ss02" horiz-adv-x="1302" 
d="M1169 1085v-1085h-297l-6 156q-45 -87 -128 -134t-199 -47q-146 0 -251.5 76t-156.5 203t-51 289t51 288.5t156.5 202.5t251.5 76q219 0 321 -174v149h309zM309 1522h189q0 -54 38 -89.5t95 -35.5t95 35.5t38 89.5h190q0 -119 -93.5 -201t-229.5 -82q-135 0 -228.5 82
t-93.5 201zM397 543q0 -91 25 -164.5t80.5 -120.5t134.5 -47q118 0 180 95t62 237q0 94 -25 168t-81 121t-136 47t-135.5 -46.5t-80 -120.5t-24.5 -169z" />
    <glyph glyph-name="uni01CE.ss02" horiz-adv-x="1302" 
d="M1169 1085v-1085h-297l-6 156q-45 -87 -128 -134t-199 -47q-146 0 -251.5 76t-156.5 203t-51 289t51 288.5t156.5 202.5t251.5 76q219 0 321 -174v149h309zM291 1495h213l125 -174l125 174h211l-179 -246h-319zM397 543q0 -91 25 -164.5t80.5 -120.5t134.5 -47
q118 0 180 95t62 237q0 94 -25 168t-81 121t-136 47t-135.5 -46.5t-80 -120.5t-24.5 -169z" />
    <glyph glyph-name="acircumflex.ss02" horiz-adv-x="1302" 
d="M1169 1085v-1085h-297l-6 156q-45 -87 -128 -134t-199 -47q-146 0 -251.5 76t-156.5 203t-51 289t51 288.5t156.5 202.5t251.5 76q219 0 321 -174v149h309zM295 1247l176 246h320l178 -246h-211l-125 174l-125 -174h-213zM397 543q0 -91 25 -164.5t80.5 -120.5t134.5 -47
q118 0 180 95t62 237q0 94 -25 168t-81 121t-136 47t-135.5 -46.5t-80 -120.5t-24.5 -169z" />
    <glyph glyph-name="adieresis.ss02" horiz-adv-x="1302" 
d="M1169 1085v-1085h-297l-6 156q-45 -87 -128 -134t-199 -47q-146 0 -251.5 76t-156.5 203t-51 289t51 288.5t156.5 202.5t251.5 76q219 0 321 -174v149h309zM258 1227v227h320v-227h-320zM397 543q0 -91 25 -164.5t80.5 -120.5t134.5 -47q118 0 180 95t62 237
q0 94 -25 168t-81 121t-136 47t-135.5 -46.5t-80 -120.5t-24.5 -169zM680 1227v227h319v-227h-319z" />
    <glyph glyph-name="agrave.ss02" horiz-adv-x="1302" 
d="M1169 1085v-1085h-297l-6 156q-45 -87 -128 -134t-199 -47q-146 0 -251.5 76t-156.5 203t-51 289t51 288.5t156.5 202.5t251.5 76q219 0 321 -174v149h309zM350 1513h254l129 -266h-196zM397 543q0 -91 25 -164.5t80.5 -120.5t134.5 -47q118 0 180 95t62 237
q0 94 -25 168t-81 121t-136 47t-135.5 -46.5t-80 -120.5t-24.5 -169z" />
    <glyph glyph-name="amacron.ss02" horiz-adv-x="1302" 
d="M1169 1085v-1085h-297l-6 156q-45 -87 -128 -134t-199 -47q-146 0 -251.5 76t-156.5 203t-51 289t51 288.5t156.5 202.5t251.5 76q219 0 321 -174v149h309zM336 1262v202h594v-202h-594zM397 543q0 -91 25 -164.5t80.5 -120.5t134.5 -47q118 0 180 95t62 237
q0 94 -25 168t-81 121t-136 47t-135.5 -46.5t-80 -120.5t-24.5 -169z" />
    <glyph glyph-name="aogonek.ss02" horiz-adv-x="1302" 
d="M1169 1085v-1085l-51 -68q-67 -87 -67 -135q0 -29 19 -48t48 -19q50 0 123 47v-166q-81 -67 -199 -60q-78 3 -132 56t-54 127q0 113 90 200l64 66h-138l-6 156q-45 -87 -128 -134t-199 -47q-146 0 -251.5 76t-156.5 203t-51 289t51 288.5t156.5 202.5t251.5 76
q219 0 321 -174v149h309zM397 543q0 -91 25 -164.5t80.5 -120.5t134.5 -47q118 0 180 95t62 237q0 94 -25 168t-81 121t-136 47t-135.5 -46.5t-80 -120.5t-24.5 -169z" />
    <glyph glyph-name="aring.ss02" horiz-adv-x="1302" 
d="M1169 1085v-1085h-297l-6 156q-45 -87 -128 -134t-199 -47q-146 0 -251.5 76t-156.5 203t-51 289t51 288.5t156.5 202.5t251.5 76q219 0 321 -174v149h309zM397 543q0 -91 25 -164.5t80.5 -120.5t134.5 -47q118 0 180 95t62 237q0 94 -25 168t-81 121t-136 47
t-135.5 -46.5t-80 -120.5t-24.5 -169zM422 1401q0 87 62 149t149 62q86 0 147.5 -62.5t61.5 -148.5q0 -89 -61 -149t-148 -60q-88 0 -149.5 60t-61.5 149zM559 1401q0 -29 21.5 -50.5t52.5 -21.5q29 0 49 21t20 51q0 28 -20 50t-49 22q-30 0 -52 -22t-22 -50z" />
    <glyph glyph-name="atilde.ss02" horiz-adv-x="1302" 
d="M1169 1085v-1085h-297l-6 156q-45 -87 -128 -134t-199 -47q-146 0 -251.5 76t-156.5 203t-51 289t51 288.5t156.5 202.5t251.5 76q219 0 321 -174v149h309zM272 1239q0 142 61 222.5t167 80.5q90 0 149 -59q6 -5 25 -23.5t25.5 -23t20.5 -11t28 -6.5q63 0 63 121h180
q0 -141 -60.5 -222t-166.5 -81q-94 0 -160 66l-23.5 23.5t-18.5 15.5t-23 13t-23 3q-63 0 -63 -119h-181zM397 543q0 -91 25 -164.5t80.5 -120.5t134.5 -47q118 0 180 95t62 237q0 94 -25 168t-81 121t-136 47t-135.5 -46.5t-80 -120.5t-24.5 -169z" />
    <glyph glyph-name="l.ss03" horiz-adv-x="612" 
d="M152 1454h309v-1454h-309v1454z" />
    <glyph glyph-name="lacute.ss03" horiz-adv-x="612" 
d="M152 1454h309v-1454h-309v1454zM207 1616l129 266h248l-187 -266h-190z" />
    <glyph glyph-name="lcaron.ss03" horiz-adv-x="985" 
d="M133 1454h309v-1454h-309v1454zM522 1245l129 266h254l-186 -266h-197z" />
    <glyph glyph-name="uni013C.ss03" horiz-adv-x="612" 
d="M152 1454h309v-1454h-309v1454zM82 -389l129 266h248l-187 -266h-190z" />
    <glyph glyph-name="lslash.ss03" horiz-adv-x="854" 
d="M289 1454h309v-510l129 45l59 -162l-188 -65v-762h-309v653l-96 -35l-60 162l156 56v618z" />
    <glyph glyph-name="adieresis.ss08" horiz-adv-x="1267" 
d="M96 750q32 174 162.5 267t343.5 93q247 0 373.5 -120t126.5 -353v-340q0 -50 17 -68t50 -18h41v-211l-55 -2q-101 -3 -146 6q-145 27 -167 160q-40 -87 -135 -138t-238 -51q-168 0 -278.5 85t-110.5 225q0 75 26.5 129.5t82.5 92.5t127 63t176 46l299 60
q-1 118 -48 174.5t-141 56.5q-157 0 -194 -174zM260 1366q0 63 43.5 105t108.5 42t108 -42t43 -105q0 -64 -43 -106.5t-108 -42.5t-108.5 42.5t-43.5 106.5zM397 297q0 -53 44 -87t124 -34q103 0 166.5 76.5t63.5 218.5v12l-181 -32q-49 -10 -72 -15.5t-57 -17.5t-49 -26
t-27 -38.5t-12 -56.5zM657 1366q0 63 43 105t107 42q65 0 109.5 -42t44.5 -105q0 -64 -44.5 -106.5t-109.5 -42.5t-107.5 42.5t-42.5 106.5z" />
    <glyph glyph-name="cdotaccent.ss08" horiz-adv-x="1232" 
d="M850 670q-13 96 -71 149t-142 53q-115 0 -177.5 -86t-62.5 -243t62.5 -243.5t177.5 -86.5q88 0 146 54.5t71 158.5l320 -12q-22 -201 -170 -320t-367 -119q-252 0 -404.5 155t-152.5 413t152.5 412.5t404.5 154.5q214 0 361.5 -115.5t168.5 -310.5zM485 1366
q0 63 42.5 103t107.5 40t108 -40t43 -103q0 -64 -43 -105.5t-108 -41.5t-107.5 41.5t-42.5 105.5z" />
    <glyph glyph-name="edieresis.ss08" horiz-adv-x="1249" 
d="M80 543q0 258 152.5 412.5t404.5 154.5q233 0 382 -156t148 -434v-57h-764q6 -122 68 -190t166 -68q68 0 123.5 36t81.5 99l311 -23q-49 -158 -189 -250t-327 -92q-252 0 -404.5 155t-152.5 413zM285 1362q0 64 43 106.5t108 42.5q64 0 108 -42.5t44 -106.5
q0 -63 -44.5 -105.5t-107.5 -42.5q-64 0 -107.5 42.5t-43.5 105.5zM406 649h448q-11 117 -71 174.5t-146 57.5q-97 0 -158 -62t-73 -170zM682 1362q0 64 42 106.5t107 42.5t108.5 -42.5t43.5 -106.5q0 -63 -43.5 -105.5t-108.5 -42.5q-64 0 -106.5 42.5t-42.5 105.5z" />
    <glyph glyph-name="edotaccent.ss08" horiz-adv-x="1249" 
d="M80 543q0 258 152.5 412.5t404.5 154.5q233 0 382 -156t148 -434v-57h-764q6 -122 68 -190t166 -68q68 0 123.5 36t81.5 99l311 -23q-49 -158 -189 -250t-327 -92q-252 0 -404.5 155t-152.5 413zM406 649h448q-11 117 -71 174.5t-146 57.5q-97 0 -158 -62t-73 -170z
M485 1364q0 63 42.5 103t107.5 40t108 -40t43 -103q0 -64 -43 -105.5t-108 -41.5t-107.5 41.5t-42.5 105.5z" />
    <glyph glyph-name="gdotaccent.ss08" horiz-adv-x="1302" 
d="M551 51q-212 0 -341.5 141t-129.5 373q0 246 129 395.5t340 149.5q105 0 187.5 -50t125.5 -140v165h305v-954q0 -214 -149.5 -338.5t-392.5 -124.5q-189 0 -327.5 83.5t-186.5 223.5l315 21q22 -53 75.5 -83t127.5 -30q110 0 168.5 54.5t58.5 160.5v117
q-38 -75 -121.5 -119.5t-183.5 -44.5zM397 569q0 -140 65 -223.5t171 -83.5q107 0 170 83t65 224q1 141 -62.5 224.5t-172.5 83.5t-172.5 -83.5t-63.5 -224.5zM485 1366q0 63 42.5 103t107.5 40t108 -40t43 -103q0 -64 -43 -105.5t-108 -41.5t-107.5 41.5t-42.5 105.5z" />
    <glyph glyph-name="i.ss08" horiz-adv-x="577" 
d="M133 1085h311v-1085h-311v1085zM137 1366q0 63 42.5 103t107.5 40t108 -40t43 -103q0 -64 -43 -105.5t-108 -41.5t-107.5 41.5t-42.5 105.5z" />
    <glyph glyph-name="idieresis.ss08" horiz-adv-x="577" 
d="M133 1085h311v-1085h-311v1085zM-63 1366q0 63 43 105t108 42q64 0 108 -42t44 -105q0 -64 -44 -106.5t-108 -42.5q-65 0 -108 42.5t-43 106.5zM334 1366q0 63 42.5 105t106.5 42q65 0 108.5 -42t43.5 -105q0 -64 -43.5 -106.5t-108.5 -42.5t-107 42.5t-42 106.5z" />
    <glyph glyph-name="i.loclTRK.ss08" horiz-adv-x="577" 
d="M133 1085h311v-1085h-311v1085zM137 1366q0 63 42.5 103t107.5 40t108 -40t43 -103q0 -64 -43 -105.5t-108 -41.5t-107.5 41.5t-42.5 105.5z" />
    <glyph glyph-name="ij.ss08" horiz-adv-x="1234" 
d="M133 1085h311v-1085h-311v1085zM137 1366q0 63 42.5 103t107.5 40t108 -40t43 -103q0 -64 -43 -105.5t-108 -41.5t-107.5 41.5t-42.5 105.5zM551 -307v231h127q53 0 84 35.5t31 95.5v1030h309v-1030q0 -362 -365 -362h-186zM795 1366q0 63 42 103t107 40t108.5 -40.5
t43.5 -102.5q0 -64 -43.5 -105.5t-108.5 -41.5t-107 41.5t-42 105.5z" />
    <glyph glyph-name="iogonek.ss08" horiz-adv-x="577" 
d="M133 1085h311v-1085h-2l-51 -68q-67 -87 -67 -135q0 -29 19 -48t48 -19q50 0 123 47v-166q-81 -67 -199 -60q-78 3 -132 56t-54 127q0 113 90 200l64 66h-150v1085zM137 1366q0 63 42.5 103t107.5 40t108 -40t43 -103q0 -64 -43 -105.5t-108 -41.5t-107.5 41.5
t-42.5 105.5z" />
    <glyph glyph-name="j.ss08" horiz-adv-x="677" 
d="M545 55q0 -362 -365 -362h-186v231h127q53 0 84 35.5t31 95.5v1030h309v-1030zM238 1366q0 63 42 103t107 40t108.5 -40.5t43.5 -102.5q0 -64 -43.5 -105.5t-108.5 -41.5t-107 41.5t-42 105.5z" />
    <glyph glyph-name="odieresis.ss08" horiz-adv-x="1273" 
d="M637 -25q-252 0 -404.5 155t-152.5 413t152.5 412.5t404.5 154.5t404.5 -154.5t152.5 -412.5t-152.5 -413t-404.5 -155zM285 1366q0 63 43 105t108 42q64 0 108 -42t44 -105q0 -64 -44 -106.5t-108 -42.5q-65 0 -108 42.5t-43 106.5zM397 543q0 -157 62.5 -243.5
t177.5 -86.5t177.5 86.5t62.5 243.5t-62.5 243t-177.5 86t-177.5 -86t-62.5 -243zM682 1366q0 63 42.5 105t106.5 42q65 0 108.5 -42t43.5 -105q0 -64 -43.5 -106.5t-108.5 -42.5t-107 42.5t-42 106.5z" />
    <glyph glyph-name="udieresis.ss08" horiz-adv-x="1245" 
d="M1110 0h-281l-6 170q-82 -195 -319 -195q-174 0 -272.5 111t-98.5 301v698h311v-596q0 -136 36 -202t126 -66q95 0 145 69.5t50 198.5v596h309v-1085zM266 1366q0 63 43 105t107 42q65 0 109 -42t44 -105q0 -64 -44 -106.5t-109 -42.5t-107.5 42.5t-42.5 106.5zM662 1366
q0 63 43 105t108 42q63 0 107.5 -42t44.5 -105q0 -64 -44 -106.5t-108 -42.5q-65 0 -108 42.5t-43 106.5z" />
    <glyph glyph-name="wdieresis.ss08" horiz-adv-x="1740" 
d="M995 1085l207 -727l201 727h295l-330 -1085h-297l-201 680l-200 -680h-297l-330 1085h295l201 -727l206 727h250zM520 1366q0 63 43.5 105t108.5 42q63 0 107 -42t44 -105q0 -64 -43.5 -106.5t-107.5 -42.5q-65 0 -108.5 42.5t-43.5 106.5zM918 1366q0 63 42.5 105
t106.5 42q65 0 108.5 -42t43.5 -105q0 -64 -43.5 -106.5t-108.5 -42.5t-107 42.5t-42 106.5z" />
    <glyph glyph-name="ydieresis.ss08" horiz-adv-x="1204" 
d="M43 1085h295l268 -761l262 761h293l-428 -1189q-37 -104 -110 -153.5t-191 -49.5h-196v225h137q49 0 76 16.5t45 53.5l26 67h-86zM252 1366q0 63 42.5 105t106.5 42q65 0 109.5 -42t44.5 -105q0 -64 -44.5 -106.5t-109.5 -42.5t-107 42.5t-42 106.5zM647 1366
q0 63 43.5 105t108.5 42t108 -42t43 -105q0 -64 -43 -106.5t-108 -42.5t-108.5 42.5t-43.5 106.5z" />
    <glyph glyph-name="zdotaccent.ss08" horiz-adv-x="1220" 
d="M1090 846l-615 -615h631v-231h-991v244l606 610h-574v231h943v-239zM465 1366q0 63 42 103t107 40t108.5 -40.5t43.5 -102.5q0 -64 -43.5 -105.5t-108.5 -41.5t-107 41.5t-42 105.5z" />
    <glyph glyph-name="adieresis.ss01.ss08" horiz-adv-x="1224" 
d="M387 297q0 -55 44.5 -92.5t123.5 -34.5q103 3 166.5 80t62.5 207v26l-180 -34q-114 -23 -149 -40q-68 -33 -68 -112zM70 289q0 60 17.5 107t49 80.5t81 59.5t105.5 43t132 31l325 64v4q0 229 -188 229q-78 0 -128 -45.5t-65 -128.5l-311 17q31 172 162.5 266t341.5 94
q243 0 371.5 -118.5t128.5 -354.5v-637h-277l-10 152q-36 -78 -125 -127t-227 -52q-164 0 -273.5 87t-109.5 229zM240 1366q0 63 43 105t108 42q63 0 107.5 -42t44.5 -105q0 -64 -44 -106.5t-108 -42.5q-65 0 -108 42.5t-43 106.5zM637 1366q0 63 42.5 105t106.5 42
q65 0 108.5 -42t43.5 -105q0 -64 -43.5 -106.5t-108.5 -42.5q-64 0 -106.5 42.5t-42.5 106.5z" />
    <glyph glyph-name="adieresis.ss02.ss08" horiz-adv-x="1302" 
d="M1169 1085v-1085h-297l-6 156q-45 -87 -128 -134t-199 -47q-146 0 -251.5 76t-156.5 203t-51 289t51 288.5t156.5 202.5t251.5 76q219 0 321 -174v149h309zM281 1366q0 63 42.5 105t106.5 42q65 0 109.5 -42t44.5 -105q0 -64 -44.5 -106.5t-109.5 -42.5
q-64 0 -106.5 42.5t-42.5 106.5zM397 543q0 -91 25 -164.5t80.5 -120.5t134.5 -47q118 0 180 95t62 237q0 94 -25 168t-81 121t-136 47t-135.5 -46.5t-80 -120.5t-24.5 -169zM676 1366q0 63 43 105t108 42t108.5 -42t43.5 -105q0 -64 -43.5 -106.5t-108.5 -42.5t-108 42.5
t-43 106.5z" />
    <glyph glyph-name="zero.ss09" horiz-adv-x="1427" 
d="M713 -33q-290 0 -454.5 205.5t-164.5 552.5q0 348 164.5 555t454.5 207q291 0 455.5 -206.5t164.5 -555.5q0 -347 -164.5 -552.5t-455.5 -205.5zM416 725q0 -159 35 -272l385 741q-56 29 -123 29q-145 0 -221 -127.5t-76 -370.5zM573 270q56 -39 140 -39q146 0 222.5 126
t76.5 368q0 190 -45 303z" />
    <glyph glyph-name="one.ss09" horiz-adv-x="1056" 
d="M186 1186q137 0 203.5 65t67.5 203h243v-1212h301v-242h-946v242h334v714h-315v230h112z" />
    <glyph glyph-name="zero.tf" horiz-adv-x="1316" 
d="M664 -33q-290 0 -454.5 205.5t-164.5 552.5q0 348 164.5 555t454.5 207q291 0 455.5 -206.5t164.5 -555.5q0 -347 -164.5 -552.5t-455.5 -205.5zM367 725q0 -241 76 -367.5t221 -126.5q146 0 222.5 126t76.5 368q0 243 -76.5 370.5t-222.5 127.5q-145 0 -221 -127.5
t-76 -370.5z" />
    <glyph glyph-name="one.tf" horiz-adv-x="1316" 
d="M346 1186q137 0 203 65t67 203h244v-1212h301v-242h-946v242h334v714h-316v230h113z" />
    <glyph glyph-name="two.tf" horiz-adv-x="1316" 
d="M145 989q19 220 173.5 359t390.5 139q228 0 376 -125.5t148 -317.5q0 -65 -21 -124t-53.5 -104t-84.5 -90t-101.5 -77.5t-116.5 -70.5q-43 -24 -86.5 -52t-106.5 -74.5t-104.5 -96.5t-44.5 -91h723v-264h-1102q0 125 28.5 231.5t74 184.5t119 149t145.5 121t170 105
q122 76 180.5 134t58.5 124q0 75 -56.5 124.5t-145.5 49.5q-99 0 -161 -64.5t-81 -187.5z" />
    <glyph glyph-name="three.tf" horiz-adv-x="1316" 
d="M649 877q90 -2 154.5 45.5t64.5 142.5q0 71 -59.5 114.5t-159.5 43.5q-89 0 -145.5 -39.5t-65.5 -106.5l-315 17q20 177 166 285t366 108q246 0 390.5 -103t144.5 -276q0 -253 -307 -322q172 -37 264 -136.5t92 -250.5q0 -198 -158 -315t-426 -117q-246 0 -400 126
t-165 333l318 12q10 -99 83 -153t166 -54q69 0 126.5 22.5t96 73t38.5 122.5q0 103 -79.5 159.5t-189.5 53.5l-125 -3v220z" />
    <glyph glyph-name="four.tf" horiz-adv-x="1316" 
d="M1130 1454v-928h156v-264h-156v-262h-313v262h-735v262l672 930h376zM424 526h393v533z" />
    <glyph glyph-name="five.tf" horiz-adv-x="1316" 
d="M1161 1454v-264h-653l-49 -371q49 70 143 110t201 40q201 0 330 -134t129 -341q0 -237 -154.5 -382t-407.5 -145q-242 0 -404 120t-179 312l315 17q18 -85 91 -135t169 -50q109 0 179.5 72t70.5 182q0 115 -71.5 184.5t-188.5 69.5q-82 0 -147.5 -37t-88.5 -98h-313
l111 850h917z" />
    <glyph glyph-name="six.tf" horiz-adv-x="1316" 
d="M952 1090q-57 139 -223 139q-147 0 -228.5 -125t-90.5 -346q58 99 149 149.5t205 50.5q217 0 351 -133t134 -350q0 -158 -74 -274.5t-201 -175t-290 -58.5q-247 0 -412 189q-147 170 -147 495q0 138 21.5 259.5t69 228.5t117.5 183.5t173 120.5t229 44q186 0 325 -101.5
t181 -279.5zM438 475q-2 -115 69 -189.5t183 -74.5q108 0 178 75t70 189t-67 187t-173 73q-114 0 -186 -73t-74 -187z" />
    <glyph glyph-name="seven.tf" horiz-adv-x="1316" 
d="M135 1454h1073v-235q-209 -246 -321.5 -553.5t-100.5 -665.5h-317q0 324 118.5 631.5t332.5 558.5h-785v264z" />
    <glyph glyph-name="eight.tf" horiz-adv-x="1316" 
d="M645 -33q-280 0 -445 116.5t-165 315.5q0 140 83.5 242.5t235.5 146.5q-122 38 -186 114.5t-64 184.5q0 178 147.5 289t393.5 111t393.5 -111t147.5 -289q0 -108 -65 -184t-187 -115q153 -46 237 -148t84 -241q0 -199 -165.5 -315.5t-444.5 -116.5zM356 444
q0 -97 79 -155t210 -58q129 0 208 58t79 155q0 98 -79 158t-208 60q-130 0 -209.5 -60t-79.5 -158zM424 1055q0 -77 59.5 -122.5t161.5 -45.5q101 0 160 45.5t59 122.5t-59 122.5t-160 45.5q-102 0 -161.5 -45.5t-59.5 -122.5z" />
    <glyph glyph-name="nine.tf" horiz-adv-x="1316" 
d="M119 963q0 161 74.5 281t201.5 181.5t287 61.5q260 0 424 -199q145 -177 145 -510q0 -137 -19.5 -255t-64 -222t-112 -177t-168.5 -115t-228 -42q-192 0 -326 94.5t-188 266.5l293 18q31 -58 85.5 -89.5t125.5 -31.5q151 0 232 116.5t90 326.5q-117 -197 -367 -197
q-211 0 -348 136.5t-137 355.5zM430 967q0 -118 66 -195.5t174 -77.5q115 0 185.5 77.5t72.5 195.5q2 119 -67 197.5t-183 78.5q-111 0 -179.5 -78.5t-68.5 -197.5z" />
    <glyph glyph-name="period.ss08" horiz-adv-x="485" 
d="M242 -18q-69 0 -115.5 45t-46.5 114t46.5 114.5t115.5 45.5t116.5 -45.5t47.5 -114.5t-47 -114t-117 -45z" />
    <glyph glyph-name="colon.ss08" horiz-adv-x="628" 
d="M313 -18q-69 0 -115 45t-46 114t46 114.5t115 45.5t116.5 -45.5t47.5 -114.5t-47 -114t-117 -45zM152 821q0 69 46 114.5t115 45.5t116.5 -45.5t47.5 -114.5t-47 -114t-117 -45q-69 0 -115 45t-46 114z" />
    <glyph glyph-name="semicolon.ss08" horiz-adv-x="641" 
d="M317 659q-69 0 -115 45.5t-46 114.5t46 114.5t115 45.5t116.5 -45.5t47.5 -114.5t-47.5 -114.5t-116.5 -45.5zM162 0v305h330v-305l-142 -324h-166l92 324h-114z" />
    <glyph glyph-name="ellipsis.ss08" horiz-adv-x="1368" 
d="M242 -18q-69 0 -115.5 45t-46.5 114t46.5 114.5t115.5 45.5t116.5 -45.5t47.5 -114.5t-47 -114t-117 -45zM522 141q0 69 46.5 114.5t115.5 45.5t116.5 -45.5t47.5 -114.5t-47 -114t-117 -45q-69 0 -115.5 45t-46.5 114zM965 141q0 69 46 114.5t115 45.5t116.5 -45.5
t47.5 -114.5t-47 -114t-117 -45q-69 0 -115 45t-46 114z" />
    <glyph glyph-name="exclam.ss08" horiz-adv-x="503" 
d="M88 1454h311v-438q0 -79 -8 -171.5t-22 -206t-19 -171.5h-213q-5 58 -19 171.5t-22 206t-8 171.5v438zM96 141q0 69 46.5 114.5t115.5 45.5t116.5 -45.5t47.5 -114.5t-47 -114t-117 -45q-69 0 -115.5 45t-46.5 114z" />
    <glyph glyph-name="exclamdown.ss08" horiz-adv-x="503" 
d="M88 106q0 79 8 171.5t22 206t19 171.5h213q5 -58 19 -171.5t22 -206t8 -171.5v-438h-311v438zM96 981q0 69 46.5 114.5t115.5 45.5t116.5 -45.5t47.5 -114.5t-47.5 -114.5t-116.5 -45.5t-115.5 45.5t-46.5 114.5z" />
    <glyph glyph-name="question.ss08" horiz-adv-x="1220" 
d="M451 465q0 136 43.5 230.5t146.5 164.5q19 14 53 36t52.5 35.5t39.5 34.5t30 46t9 57q0 73 -56.5 117.5t-150.5 44.5q-87 0 -146 -60t-71 -159l-321 12q20 205 166.5 334t367.5 129q232 0 379.5 -117.5t147.5 -300.5q0 -109 -55 -189.5t-185 -162.5q-145 -88 -145 -252
h-305zM463 141q0 69 46.5 114.5t115.5 45.5t116 -45.5t47 -114.5t-47 -114t-116 -45t-115.5 45t-46.5 114z" />
    <glyph glyph-name="questiondown.ss08" horiz-adv-x="1220" 
d="M770 690q0 -136 -43.5 -230.5t-146.5 -164.5q-20 -14 -53.5 -36t-52 -35.5t-39.5 -34.5t-30.5 -46t-9.5 -57q0 -73 56.5 -117.5t150.5 -44.5q87 0 146 60t71 159l322 -12q-20 -205 -167 -334t-368 -129q-231 0 -378.5 117.5t-147.5 300.5q0 109 54.5 190t184.5 162
q146 88 146 252h305zM432 1014q0 69 47.5 114.5t116.5 45.5t115.5 -45.5t46.5 -114.5t-46.5 -114.5t-115.5 -45.5t-116.5 45.5t-47.5 114.5z" />
    <glyph glyph-name="periodcentered.ss08" horiz-adv-x="485" 
d="M242 438q-69 0 -115.5 45.5t-46.5 114.5t46.5 114.5t115.5 45.5t116.5 -45.5t47.5 -114.5t-47.5 -114.5t-116.5 -45.5z" />
    <glyph glyph-name="uniFF1A.ss08" horiz-adv-x="485" 
d="M242 -18q-69 0 -115.5 45t-46.5 114t46.5 114.5t115.5 45.5t116.5 -45.5t47.5 -114.5t-47 -114t-117 -45zM80 821q0 69 46.5 114.5t115.5 45.5t116.5 -45.5t47.5 -114.5t-47 -114t-117 -45q-69 0 -115.5 45t-46.5 114z" />
    <glyph glyph-name="uniFF01.ss08" horiz-adv-x="565" 
d="M88 1454h311v-438q0 -79 -8 -171.5t-22 -206t-19 -171.5h-213q-5 58 -19 171.5t-22 206t-8 171.5v438zM96 141q0 69 46.5 114.5t115.5 45.5t116.5 -45.5t47.5 -114.5t-47 -114t-117 -45q-69 0 -115.5 45t-46.5 114z" />
    <glyph glyph-name="uniFF0E.ss08" horiz-adv-x="485" 
d="M242 -18q-69 0 -115.5 45t-46.5 114t46.5 114.5t115.5 45.5t116.5 -45.5t47.5 -114.5t-47 -114t-117 -45z" />
    <glyph glyph-name="uniFF1F.ss08" horiz-adv-x="1220" 
d="M451 465q0 136 43.5 230.5t146.5 164.5q19 14 53 36t52.5 35.5t39.5 34.5t30 46t9 57q0 73 -56.5 117.5t-150.5 44.5q-87 0 -146 -60t-71 -159l-321 12q20 205 166.5 334t367.5 129q232 0 379.5 -117.5t147.5 -300.5q0 -109 -55 -189.5t-185 -162.5q-145 -88 -145 -252
h-305zM463 141q0 69 46.5 114.5t115.5 45.5t116 -45.5t47 -114.5t-47 -114t-116 -45t-115.5 45t-46.5 114z" />
    <glyph glyph-name="uniFF1B.ss08" horiz-adv-x="497" 
d="M246 659q-69 0 -115.5 45.5t-46.5 114.5t46.5 114.5t115.5 45.5t116.5 -45.5t47.5 -114.5t-47.5 -114.5t-116.5 -45.5zM90 0v305h330v-305l-141 -324h-166l92 324h-115z" />
    <glyph glyph-name="arrowup.ss07" horiz-adv-x="993" 
d="M496 1421l413 -495h-262v-889h-301v891h-262z" />
    <glyph glyph-name="uni2197.ss07" horiz-adv-x="1253" 
d="M1169 1458l-59 -643l-184 184l-629 -628l-213 213l629 628l-185 187z" />
    <glyph glyph-name="arrowright.ss07" horiz-adv-x="1552" 
d="M1468 727l-495 -414v262h-889v302h891v262z" />
    <glyph glyph-name="uni2198.ss07" horiz-adv-x="1253" 
d="M1169 4l-643 57l187 185l-631 628l213 213l631 -628l184 184z" />
    <glyph glyph-name="arrowdown.ss07" horiz-adv-x="993" 
d="M496 37l-412 493h262v891h301v-889h262z" />
    <glyph glyph-name="uni2199.ss07" horiz-adv-x="1253" 
d="M84 4l57 639l187 -184l628 628l213 -213l-628 -628l186 -185z" />
    <glyph glyph-name="arrowleft.ss07" horiz-adv-x="1552" 
d="M84 731l494 412v-262h890v-301h-888v-263z" />
    <glyph glyph-name="uni2196.ss07" horiz-adv-x="1253" 
d="M84 1456l641 -59l-184 -187l628 -628l-213 -213l-628 628l-185 -184z" />
    <glyph glyph-name="arrowboth.ss07" horiz-adv-x="1781" 
d="M84 700l496 414v-262h622v262l496 -414l-494 -411v262h-626v-262z" />
    <glyph glyph-name="arrowupdn.ss07" horiz-adv-x="993" 
d="M498 -86l-414 496h262v622h-262l414 496l411 -494h-262v-626h262z" />
    <glyph glyph-name="uni030C.alt" horiz-adv-x="0" 
d="M463 1513l-187 -266h-196l129 266h254z" />
    <glyph glyph-name="uni0326.loclMAH" horiz-adv-x="0" 
d="M457 -123l-187 -266h-190l129 266h248z" />
    <glyph glyph-name="uni0308.ss08" horiz-adv-x="0" 
d="M229 1217q-65 0 -107 42.5t-42 106.5q0 63 42.5 105t106.5 42q65 0 109.5 -42t44.5 -105q0 -64 -44.5 -106.5t-109.5 -42.5zM475 1366q0 63 43.5 105t108.5 42t108 -42t43 -105q0 -64 -43 -106.5t-108 -42.5t-108.5 42.5t-43.5 106.5z" />
    <glyph glyph-name="uni0307.ss08" horiz-adv-x="0" 
d="M229 1219q-65 0 -107 41.5t-42 105.5q0 63 42 103t107 40t108.5 -40.5t43.5 -102.5q0 -64 -43.5 -105.5t-108.5 -41.5z" />
    <glyph glyph-name="dieresis.ss08" horiz-adv-x="858" 
d="M229 1217q-65 0 -107 42.5t-42 106.5q0 63 42.5 105t106.5 42q65 0 109.5 -42t44.5 -105q0 -64 -44.5 -106.5t-109.5 -42.5zM475 1366q0 63 43.5 105t108.5 42t108 -42t43 -105q0 -64 -43 -106.5t-108 -42.5t-108.5 42.5t-43.5 106.5z" />
    <glyph glyph-name="dotaccent.ss08" horiz-adv-x="458" 
d="M229 1219q-65 0 -107 41.5t-42 105.5q0 63 42 103t107 40t108.5 -40.5t43.5 -102.5q0 -64 -43.5 -105.5t-108.5 -41.5z" />
    <glyph glyph-name="NuevoGlifo" 
 />
    <glyph glyph-name="blackCircled" horiz-adv-x="1671" 
d="M836 -25q154 0 294 60t241 161t160.5 241.5t59.5 295.5q0 153 -59.5 292.5t-160.5 240.5t-241 161t-294 60t-294 -60t-241 -161t-161 -240.5t-60 -292.5q0 -155 60 -295.5t161 -241.5t241 -161t294 -60z" />
    <glyph glyph-name="blackCircledStroke" horiz-adv-x="1730" 
d="M864 -55q-160 0 -305 62.5t-250 167.5t-167 251t-62 307q0 159 62 304.5t167 250.5t250 167.5t305 62.5q161 0 306.5 -62.5t251 -167.5t167.5 -250.5t62 -304.5q0 -161 -62 -307t-167.5 -251t-251 -167.5t-306.5 -62.5zM256 733q0 -167 81 -308t221 -222.5t306 -81.5
q125 0 238.5 48t195 130t129.5 195.5t48 238.5q0 165 -81 305t-222 221.5t-308 81.5q-166 0 -306 -81.5t-221 -221.5t-81 -305z" />
    </font>
</defs>
</svg>
